Subcategories

Bryan Adams - The Best Of Me (1999)

Posted By: popsakov
Bryan Adams - The Best Of Me (1999)

Bryan Adams - The Best Of Me (1999)
EAC Rip | FLAC (Img) + Cue + Log ~ 559 Mb | MP3 CBR320 ~ 207 Mb
Full Scans | 01:12:26 | RAR 5% Recovery
Rock | A&M Records #490 522-2

The Best of Me is the third greatest hits album by Canadian singer Bryan Adams. It was released worldwide in 1999, and in the U.S. in 2001. It was his last release on A&M Records. It is Adams' second compilation album, after So Far So Good; except for Japan, where Hits on Fire was released in 1988. This album sees Adams reuniting with Robert John "Mutt" Lange – on the title track – after being absent from 1998's On a Day Like Today. The collection sells well over 3 million copies.

***************

Bryan Adams - The Best Of Me (1999)

Track List:

01. The Best Of Me [0:03:34.35]
02. Can't Stop The Thing We Started [0:04:27.60]
03. I'm Ready [0:04:25.08]
04. Summer Of '69 [0:03:32.67]
05. Let's Make A Night To Remember [0:06:17.68]
06. All For Love (with Rod Stewart and Sting) [0:04:40.02]
07. Have You Ever Really Loved A Woman [0:04:49.28]
08. Run To You [0:03:52.15]
09. Cloud Number Nine [0:04:09.62]
10. (Everything I Do) I Do It For You [0:06:33.60]
11. Back To You [0:04:25.70]
12. When You're Gone (feat. Mel C) [0:03:24.70]
13. Please Forgive Me [0:05:53.35]
14. The Only Thing That Looks Good On Me Is You [0:03:38.65]
15. Inside Out [0:04:57.45]
16. Dont Give Up (With Chicane) [0:03:42.23]

Exact Audio Copy V1.1 from 23. June 2015

EAC extraction logfile from 18. May 2016, 8:51

Bryan Adams / The Best Of Me [490 522-2]

Used drive : HL-DT-STBD-RE BH10LS38 Adapter: 1 ID: 1

Read mode : Secure
Utilize accurate stream : Yes
Defeat audio cache : Yes
Make use of C2 pointers : No

Read offset correction : 667
Overread into Lead-In and Lead-Out : No
Fill up missing offset samples with silence : Yes
Delete leading and trailing silent blocks : No
Null samples used in CRC calculations : Yes
Used interface : Installed external ASPI interface

Used output format : User Defined Encoder
Selected bitrate : 128 kBit/s
Quality : High
Add ID3 tag : No
Command line compressor : C:\Program Files (x86)\Exact Audio Copy\wavpack-4.60.1\wavpack.exe
Additional command line options : -hm -w "Year=%year%" -w "Genre=%genre%" %source% %dest%


TOC of the extracted CD

Track | Start | Length | Start sector | End sector
––––––––––––––––––––––––––––-
1 | 0:00.00 | 3:34.35 | 0 | 16084
2 | 3:34.35 | 4:27.60 | 16085 | 36169
3 | 8:02.20 | 4:25.08 | 36170 | 56052
4 | 12:27.28 | 3:32.67 | 56053 | 72019
5 | 16:00.20 | 6:17.68 | 72020 | 100362
6 | 22:18.13 | 4:40.02 | 100363 | 121364
7 | 26:58.15 | 4:49.28 | 121365 | 143067
8 | 31:47.43 | 3:52.15 | 143068 | 160482
9 | 35:39.58 | 4:09.62 | 160483 | 179219
10 | 39:49.45 | 6:33.60 | 179220 | 208754
11 | 46:23.30 | 4:25.70 | 208755 | 228699
12 | 50:49.25 | 3:24.70 | 228700 | 244069
13 | 54:14.20 | 5:53.35 | 244070 | 270579
14 | 60:07.55 | 3:38.65 | 270580 | 286994
15 | 63:46.45 | 4:57.45 | 286995 | 309314
16 | 68:44.15 | 3:42.23 | 309315 | 325987


Range status and errors

Selected range

Filename G:\Rips by Alder\Bryan Adams - The Best Of Me [490 522-2].wav

Peak level 100.0 %
Extraction speed 7.6 X
Range quality 99.9 %
Test CRC 53126763
Copy CRC 53126763
Copy OK

No errors occurred


AccurateRip summary

Track 1 accurately ripped (confidence 6) [9D67E5F2] (AR v2)
Track 2 accurately ripped (confidence 6) [76FDE27B] (AR v2)
Track 3 accurately ripped (confidence 6) [BCE0C9CE] (AR v2)
Track 4 accurately ripped (confidence 6) [91DD2120] (AR v2)
Track 5 accurately ripped (confidence 6) [2D94E73D] (AR v2)
Track 6 accurately ripped (confidence 6) [A8B34A4C] (AR v2)
Track 7 accurately ripped (confidence 6) [A4D169E1] (AR v2)
Track 8 accurately ripped (confidence 6) [41337FF3] (AR v2)
Track 9 accurately ripped (confidence 6) [C29E0DE2] (AR v2)
Track 10 accurately ripped (confidence 6) [DAE63154] (AR v2)
Track 11 accurately ripped (confidence 6) [F610BF20] (AR v2)
Track 12 accurately ripped (confidence 6) [098C62F1] (AR v2)
Track 13 accurately ripped (confidence 6) [64E75DE8] (AR v2)
Track 14 accurately ripped (confidence 6) [A586F972] (AR v2)
Track 15 accurately ripped (confidence 6) [FCC7820E] (AR v2)
Track 16 accurately ripped (confidence 6) [10DDA869] (AR v2)

All tracks accurately ripped

End of status report

–– CUETools DB Plugin V2.1.6

[CTDB TOCID: ZI0_NZrp5IUDjVdYiLYTeDui9G0-] found
Submit result: ZI0_NZrp5IUDjVdYiLYTeDui9G0- has been confirmed
Track | CTDB Status
1 | (555/563) Accurately ripped
2 | (553/563) Accurately ripped
3 | (553/563) Accurately ripped
4 | (556/563) Accurately ripped
5 | (555/563) Accurately ripped
6 | (556/563) Accurately ripped
7 | (556/563) Accurately ripped
8 | (558/563) Accurately ripped
9 | (557/563) Accurately ripped
10 | (557/563) Accurately ripped
11 | (555/563) Accurately ripped
12 | (554/563) Accurately ripped
13 | (552/563) Accurately ripped
14 | (551/563) Accurately ripped
15 | (545/563) Accurately ripped
16 | (553/563) Accurately ripped


==== Log checksum 0252EF47EE9534415D192A2758A63A0FF6B17FE82F67542597A54BE24DE384C9 ====

[CUETools log; Date: 18.05.2016 17:34:42; Version: 2.1.5]
[CTDB TOCID: ZI0_NZrp5IUDjVdYiLYTeDui9G0-] found.
Track | CTDB Status
1 | (556/564) Accurately ripped
2 | (554/564) Accurately ripped
3 | (554/564) Accurately ripped
4 | (557/564) Accurately ripped
5 | (556/564) Accurately ripped
6 | (557/564) Accurately ripped
7 | (557/564) Accurately ripped
8 | (559/564) Accurately ripped
9 | (558/564) Accurately ripped
10 | (558/564) Accurately ripped
11 | (556/564) Accurately ripped
12 | (555/564) Accurately ripped
13 | (553/564) Accurately ripped
14 | (552/564) Accurately ripped
15 | (546/564) Accurately ripped
16 | (554/564) Accurately ripped
[AccurateRip ID: 002a1a3e-01fcf631-de10fa10] found.
Track [ CRC | V2 ] Status
01 [cae56288|9d67e5f2] (00+06/35) Accurately ripped
02 [a92547e0|76fde27b] (00+06/33) Accurately ripped
03 [df3c5511|bce0c9ce] (00+06/34) Accurately ripped
04 [480bdf94|91dd2120] (00+06/33) Accurately ripped
05 [679be3b0|2d94e73d] (00+06/33) Accurately ripped
06 [54533aaa|a8b34a4c] (00+06/35) Accurately ripped
07 [b2209066|a4d169e1] (00+06/33) Accurately ripped
08 [d35aaecb|41337ff3] (00+06/33) Accurately ripped
09 [5a558e20|c29e0de2] (00+06/33) Accurately ripped
10 [a0574fea|dae63154] (00+06/35) Accurately ripped
11 [07196729|f610bf20] (00+06/33) Accurately ripped
12 [9c4e2c2d|098c62f1] (00+06/33) Accurately ripped
13 [a6add7d5|64e75de8] (00+06/32) Accurately ripped
14 [21658f58|a586f972] (00+06/33) Accurately ripped
15 [8526d299|fcc7820e] (00+06/32) Accurately ripped
16 [5bf02d1c|10dda869] (00+06/35) Accurately ripped
Offsetted by -26:
01 [6fccc8b6] (04/35) Accurately ripped
02 [293dfa0f] (04/33) Accurately ripped
03 [0e21a902] (05/34) Accurately ripped
04 [2d042881] (04/33) Accurately ripped
05 [f76574d3] (04/33) Accurately ripped
06 [5a45de0b] (04/35) Accurately ripped
07 [1af2bfd8] (04/33) Accurately ripped
08 [a64a3437] (04/33) Accurately ripped
09 [daf3f225] (04/33) Accurately ripped
10 [290e88e4] (04/35) Accurately ripped
11 [1a569edb] (04/33) Accurately ripped
12 [fe2819bd] (04/33) Accurately ripped
13 [297dce03] (03/32) Accurately ripped
14 [5a6bdb04] (04/33) Accurately ripped
15 [35abac57] (04/32) Accurately ripped
16 [2c085fba] (04/35) Accurately ripped
Offsetted by 664:
01 [f50ae240] (09/35) Accurately ripped
02 [e4185162] (09/33) Accurately ripped
03 [cc3eeb69] (09/34) Accurately ripped
04 [8b4ef5de] (09/33) Accurately ripped
05 [5222b11f] (09/33) Accurately ripped
06 [0bccb36b] (09/35) Accurately ripped
07 [92744f07] (09/33) Accurately ripped
08 [00f8fc19] (09/33) Accurately ripped
09 [1ec95d90] (09/33) Accurately ripped
10 [2d1903ff] (09/35) Accurately ripped
11 [3c05493e] (09/33) Accurately ripped
12 [967f221b] (09/33) Accurately ripped
13 [3a4d2346] (09/32) Accurately ripped
14 [0452da58] (09/33) Accurately ripped
15 [ae0d6891] (09/32) Accurately ripped
16 [0fad9694] (09/35) Accurately ripped
Offsetted by -690:
01 [45a748fe] (02/35) Accurately ripped
02 [6c48f5cc] (00/33) No match
03 [2bbd4d13] (00/34) No match
04 [081cd15b] (00/33) No match
05 [4aaf1572] (00/33) No match
06 [9626ebf5] (02/35) Accurately ripped
07 [9f7d0384] (00/33) No match
08 [df942009] (00/33) No match
09 [5f2a1040] (00/33) No match
10 [fd0d6542] (02/35) Accurately ripped
11 [6d171691] (00/33) No match
12 [77126b0e] (00/33) No match
13 [eaf0d8bf] (00/32) No match
14 [3b28caa5] (00/33) No match
15 [0cc5165f] (00/32) No match
16 [784af642] (02/35) Accurately ripped
Offsetted by -685:
01 [39a22b7f] (00/35) No match (V2 was not tested)
02 [e12c08af] (00/33) No match (V2 was not tested)
03 [85dedb66] (00/34) No match (V2 was not tested)
04 [d3a08cd1] (00/33) No match (V2 was not tested)
05 [a431cfb8] (00/33) No match (V2 was not tested)
06 [4ef241d3] (00/35) No match (V2 was not tested)
07 [47e32903] (00/33) No match (V2 was not tested)
08 [dc4dfeeb] (00/33) No match (V2 was not tested)
09 [22edae5e] (00/33) No match (V2 was not tested)
10 [22924b50] (00/35) No match (V2 was not tested)
11 [4cf6698a] (00/33) No match (V2 was not tested)
12 [41e1ad2b] (00/33) No match (V2 was not tested)
13 [18c18aeb] (00/32) No match (V2 was not tested)
14 [21620cb9] (00/33) No match (V2 was not tested)
15 [43707658] (00/32) No match (V2 was not tested)
16 [1f0b3b4b] (00/35) No match (V2 was not tested)
Offsetted by -683:
01 [68068619] (00/35) No match (V2 was not tested)
02 [166dd411] (00/33) No match (V2 was not tested)
03 [65fb9e4d] (00/34) No match (V2 was not tested)
04 [2345e397] (00/33) No match (V2 was not tested)
05 [002e8392] (00/33) No match (V2 was not tested)
06 [181d2bae] (00/35) No match (V2 was not tested)
07 [c4900d6b] (00/33) No match (V2 was not tested)
08 [8f93184f] (00/33) No match (V2 was not tested)
09 [f1165427] (00/33) No match (V2 was not tested)
10 [cb2edaa1] (00/35) No match (V2 was not tested)
11 [32aada7f] (00/33) No match (V2 was not tested)
12 [3880af9c] (00/33) No match (V2 was not tested)
13 [4d548de4] (00/32) No match (V2 was not tested)
14 [e3ddf432] (00/33) No match (V2 was not tested)
15 [bfb50322] (00/32) No match (V2 was not tested)
16 [fb5823b5] (00/35) No match (V2 was not tested)

Track Peak [ CRC32 ] [W/O NULL] [ LOG ]
– 100,0 [53126763] [82CA0449] CRC32
01 96,0 [F806575C] [1CA611C3]
02 95,1 [CA50A634] [3CFFFD11]
03 97,9 [C757B5FD] [74C91263]
04 100,0 [B52A0067] [17DD1D59]
05 98,0 [36D85F18] [7A3BD379]
06 100,0 [02EFF282] [02F08982]
07 99,9 [019A4841] [ADD9AF8F]
08 97,7 [8F229F77] [61965E19]
09 99,9 [C1F7644A] [E3F95010]
10 95,1 [C6BD71B6] [184F5448]
11 97,9 [13605726] [E6D8CE2F]
12 97,7 [631F5B7E] [5846AD9A]
13 98,5 [47111436] [86B63A32]
14 98,0 [C52152D0] [5A26D522]
15 99,5 [014474F2] [6C70C7AA]
16 98,8 [185AB723] [ACED211E]

Bryan Adams - The Best Of Me (1999)


All thanks go to Alder

>>> Bryan Adams in my Blog <<<

DOWNLOAD: