Subcategories

Bryan Ferry - Olympia (2010) [Collector's Edition, 2CD + DVD + Book]

Posted By: Andi_Deris
Bryan Ferry - Olympia (2010) [Collector's Edition, 2CD + DVD + Book]

Bryan Ferry - Olympia (2010) [Collector's Edition, 2CD + DVD + Book]
EAC Rip | FLAC: Image+Cue+Log | 821 Mb | MP3 CBR 320 kbps | 309 Mb | Scans | 122 Mb | Book | 1.2 Gb
DVD5 | Video: NTSC 720x480 (16:9) | Audio: LinearPCM, 2 ch | 2.5 Gb
Genre: Pop Rock, Art-Pop, Electronic | Virgin Records | Cat.№: CVDM 3086/5099990667022

Olympia is the thirteenth studio album by the British singer Bryan Ferry, released by Virgin Records on 25 October 2010. Co-produced by Ferry and Rhett Davies, Olympia is Ferry's first album of predominantly original material since 2002's Frantic. Collector's Edition with the 12 tracks and DVD from the Deluxe Edition as well as a second CD containing remixes and a 40-page hardback book.



Bryan Ferry - Olympia (2010) [Collector's Edition, 2CD + DVD + Book]


Disc One: OLYMPIA

01. You Can Dance (04:28)
02. Alphaville (04:25)
03. Heartache By Numbers (04:55)
04. Me Oh My (04:40)
05. Shameless (04:35)
06. Song To The Siren (05:56)
07. No Face, No Name, No Number (04:40)
08. BF Bass (Ode To Olympia) (04:09)
09. Reason Or Rhyme (06:51)
10. Tender Is The Night (04:34)
11. Whatever Gets You Thru The Night (Bonus track) (03:19)
12. One Night (Bonus track) (04:00)

Bryan Ferry - Olympia (2010) [Collector's Edition, 2CD + DVD + Book]


Disc Two: ALTERNATIVE MIXES

01. You Can Dance (Fred Falke Mix) (07:08)
02. Alphaville (Time And Space Machine Mix) (07:06)
03. Heartache By Numbers (Circus Parade Mix) (07:27)
04. Me Oh My (DJ Cleaver Mix) (06:42)
05. Shameless (Still Going Mix) (08:12)
06. BF Bass (Ode To Olympia) (West End Wolf Mix) (09:21)
07. Reason Or Rhyme (Instrumental) (06:54)

Bryan Ferry - Olympia (2010) [Collector's Edition, 2CD + DVD + Book]


Disc Three: DVD

01. The Making Of Olympia
02. You Can Dance

Subtitles: Francais, Deutsch, Espanol, Portugues, Italiano, Japanese

Bryan Ferry - Olympia (2010) [Collector's Edition, 2CD + DVD + Book]

Bryan Ferry - Olympia (2010) [Collector's Edition, 2CD + DVD + Book]
Bryan Ferry - Olympia (2010) [Collector's Edition, 2CD + DVD + Book]
Bryan Ferry - Olympia (2010) [Collector's Edition, 2CD + DVD + Book]
Bryan Ferry - Olympia (2010) [Collector's Edition, 2CD + DVD + Book]


Produced by Bryan Ferry and Rhett Davies

Bryan Ferry - Olympia (2010) [Collector's Edition, 2CD + DVD + Book]


Exact Audio Copy V1.0 beta 3 from 29. August 2011

EAC extraction logfile from 5. April 2013, 22:16

Bryan Ferry / Olympia

Used drive : Optiarc BD RW BD-5300S Adapter: 3 ID: 0

Read mode : Secure
Utilize accurate stream : Yes
Defeat audio cache : Yes
Make use of C2 pointers : No

Read offset correction : 6
Overread into Lead-In and Lead-Out : No
Fill up missing offset samples with silence : Yes
Delete leading and trailing silent blocks : No
Null samples used in CRC calculations : Yes
Used interface : Installed external ASPI interface

Used output format : User Defined Encoder
Selected bitrate : 1024 kBit/s
Quality : High
Add ID3 tag : No
Command line compressor : C:\Program Files (x86)\Exact Audio Copy\Flac\flac.exe
Additional command line options : -8 -V -T "Date=%year%" -T "Genre=%genre%" -T "COMMENT=ripped by bvstudio®" %source%


TOC of the extracted CD

Track | Start | Length | Start sector | End sector
––––––––––––––––––––––––––––-
1 | 0:00.00 | 4:28.67 | 0 | 20166
2 | 4:28.67 | 4:25.20 | 20167 | 40061
3 | 8:54.12 | 4:55.59 | 40062 | 62245
4 | 13:49.71 | 4:40.07 | 62246 | 83252
5 | 18:30.03 | 4:35.51 | 83253 | 103928
6 | 23:05.54 | 5:56.06 | 103929 | 130634
7 | 29:01.60 | 4:39.73 | 130635 | 151632
8 | 33:41.58 | 4:09.25 | 151633 | 170332
9 | 37:51.08 | 6:51.66 | 170333 | 201223
10 | 44:42.74 | 4:34.42 | 201224 | 221815
11 | 49:17.41 | 3:19.62 | 221816 | 236802
12 | 52:37.28 | 4:00.27 | 236803 | 254829


Range status and errors

Selected range

Filename F:\Bryan Ferry\2010 - Olympia (Collector's Edition)\CD1\Bryan Ferry - Olympia.wav

Peak level 100.0 %
Extraction speed 2.1 X
Range quality 100.0 %
Test CRC 740F0C5C
Copy CRC 740F0C5C
Copy OK

No errors occurred


AccurateRip summary

Track 1 cannot be verified as accurate (confidence 24) [A1513820], AccurateRip returned [EF25FDB7] (AR v2)
Track 2 cannot be verified as accurate (confidence 23) [84ED299B], AccurateRip returned [56FF6BA0] (AR v2)
Track 3 cannot be verified as accurate (confidence 23) [EA44C54F], AccurateRip returned [1D91AE3F] (AR v2)
Track 4 cannot be verified as accurate (confidence 23) [DAF66836], AccurateRip returned [F73ACB98] (AR v2)
Track 5 cannot be verified as accurate (confidence 23) [189F1F42], AccurateRip returned [A1A52F39] (AR v2)
Track 6 cannot be verified as accurate (confidence 23) [984368F5], AccurateRip returned [FB2A795D] (AR v2)
Track 7 cannot be verified as accurate (confidence 23) [FE536636], AccurateRip returned [B31A12FF] (AR v2)
Track 8 cannot be verified as accurate (confidence 23) [DD2893DD], AccurateRip returned [A999D3C4] (AR v2)
Track 9 cannot be verified as accurate (confidence 23) [B5BE934D], AccurateRip returned [56A44F4D] (AR v2)
Track 10 cannot be verified as accurate (confidence 23) [B3029C96], AccurateRip returned [B779E6EA] (AR v2)
Track 11 cannot be verified as accurate (confidence 23) [37FD25AA], AccurateRip returned [ABA495F5] (AR v2)
Track 12 cannot be verified as accurate (confidence 23) [3FA0F5FF], AccurateRip returned [0807A97F] (AR v2)

No tracks could be verified as accurate
You may have a different pressing from the one(s) in the database

End of status report

–– CUETools DB Plugin V2.1.4

[CTDB TOCID: L2WxHbyGE4_zWrXqn5KVsAlE6Rs-] found
Submit result: L2WxHbyGE4_zWrXqn5KVsAlE6Rs- has been confirmed
Track | CTDB Status
1 | (11/11) Accurately ripped
2 | (11/11) Accurately ripped
3 | (11/11) Accurately ripped
4 | (11/11) Accurately ripped
5 | (11/11) Accurately ripped
6 | (11/11) Accurately ripped
7 | ( 9/11) Accurately ripped, or (2/11) differs in 180 samples @01:28:63
8 | (11/11) Accurately ripped
9 | (11/11) Accurately ripped
10 | (11/11) Accurately ripped
11 | (11/11) Accurately ripped
12 | (11/11) Accurately ripped


==== Log checksum 55E4609599D10E01D803E6C91B0899DAD0A5575FD57A6F8B900289D93E72F3A0 ====

Exact Audio Copy V1.0 beta 3 from 29. August 2011

EAC extraction logfile from 5. April 2013, 23:09

Bryan Ferry / Olympia (Alternative Mixes)

Used drive : Optiarc BD RW BD-5300S Adapter: 3 ID: 0

Read mode : Secure
Utilize accurate stream : Yes
Defeat audio cache : Yes
Make use of C2 pointers : No

Read offset correction : 6
Overread into Lead-In and Lead-Out : No
Fill up missing offset samples with silence : Yes
Delete leading and trailing silent blocks : No
Null samples used in CRC calculations : Yes
Used interface : Installed external ASPI interface

Used output format : User Defined Encoder
Selected bitrate : 1024 kBit/s
Quality : High
Add ID3 tag : No
Command line compressor : C:\Program Files (x86)\Exact Audio Copy\Flac\flac.exe
Additional command line options : -8 -V -T "Date=%year%" -T "Genre=%genre%" -T "COMMENT=ripped by bvstudio®" %source%


TOC of the extracted CD

Track | Start | Length | Start sector | End sector
––––––––––––––––––––––––––––-
1 | 0:00.00 | 7:08.47 | 0 | 32146
2 | 7:08.47 | 7:06.70 | 32147 | 64166
3 | 14:15.42 | 7:27.41 | 64167 | 97732
4 | 21:43.08 | 6:42.46 | 97733 | 127928
5 | 28:25.54 | 8:12.07 | 127929 | 164835
6 | 36:37.61 | 9:21.32 | 164836 | 206942
7 | 45:59.18 | 6:54.55 | 206943 | 238047


Range status and errors

Selected range

Filename F:\Bryan Ferry\2010 - Olympia (Collector's Edition)\CD2\Bryan Ferry - Olympia (Alternative Mixes).wav

Peak level 99.9 %
Extraction speed 2.0 X
Range quality 100.0 %
Test CRC CCAE523B
Copy CRC CCAE523B
Copy OK

No errors occurred


AccurateRip summary

Track 1 accurately ripped (confidence 3) [32DFDD9D] (AR v2)
Track 2 accurately ripped (confidence 3) [3DDCD58E] (AR v2)
Track 3 accurately ripped (confidence 3) [BF097631] (AR v2)
Track 4 accurately ripped (confidence 3) [4C6454E4] (AR v2)
Track 5 accurately ripped (confidence 3) [1C509CC1] (AR v2)
Track 6 accurately ripped (confidence 3) [EA887055] (AR v2)
Track 7 accurately ripped (confidence 3) [37BF2F5B] (AR v2)

All tracks accurately ripped

End of status report

–– CUETools DB Plugin V2.1.4

[CTDB TOCID: 35m3rHr4DVoTL9a3jQjwM.WQwvM-] found
Submit result: 35m3rHr4DVoTL9a3jQjwM.WQwvM- has been confirmed
Track | CTDB Status
1 | (2/2) Accurately ripped
2 | (2/2) Accurately ripped
3 | (2/2) Accurately ripped
4 | (2/2) Accurately ripped
5 | (2/2) Accurately ripped
6 | (2/2) Accurately ripped
7 | (2/2) Accurately ripped


==== Log checksum 9C75E875762EB9A10CA28F3CFCD200172A6908224D48C0A82BA4A45FA0A6CFDF ====

Enabled regions: 1, 2, 3, 4, 5, 6, 7, 8

VTS_01 :
Play Length: 00:28:00
Video: NTSC 16:9 (720x480) VBR, Auto Letterboxed
Audio:
English (LinearPCM, 2 ch)
Subtitles:
Francais
Deutsch
Espanol
Portugues
Italiano
Japanese

VTS_02 :
Play Length: 00:04:44+00:02:57
Video: NTSC 16:9 (720x480) VBR, Auto Letterboxed
Audio:
English (LinearPCM, 2 ch)

VTS_03 :
Play Length: 00:00:06
Video: NTSC 16:9 (720x480) VBR, Auto Letterboxed
Audio:
English (Dolby AC3, 2 ch)


Many thanks to the original uploader: bvstudio/Konstantin_slash

See also:
* Bryan Ferry & Roxy Music 1986 Street Life: 20 Great Hits

* Bryan Ferry 1993 Taxi [Japan 1st Press]