Subcategories
Tags
Language
Tags

Bud Powell - The Complete Blue Note And Roost Recordings (1994) [4CDs] {Blue Note}

Posted By: tiburon
Bud Powell - The Complete Blue Note And Roost Recordings (1994) [4CDs] {Blue Note}

Bud Powell - The Complete Blue Note And Roost Recordings (1994) [4CDs] {Blue Note}
EAC 1.3 | FLAC tracks level 8 | Cue+Log+M3U | Full Scans 300dpi | 1.56GB + 5% Recovery
MP3 CBR 320 Kbps | 634MB + 5% Recovery
Genre: Jazz, Bop
Bud Powell - The Complete Blue Note And Roost Recordings (1994) [4CDs] {Blue Note}

Although pianist Bud Powell recorded some great albums elsewhere (most notably his first couple of sessions for Verve), on the whole his Blue Note records were his most significant and definitive. This four-CD set has all of the music from his five Blue Note albums, his two sessions for the Roost label, and all known alternate takes. Powell literally changed the way that the piano is played in jazz, and this magnificent set has more than its share of classics. In addition to the many trio performances, trombonist Curtis Fuller sits in on three numbers, there are a few solo cuts, and one date features Powell at the head of a quintet with trumpeter Fats Navarro and the young tenor Sonny Rollins. Although there are a few faltering moments in the later dates, this essential release (unlike the similar Verve reissue) is quite consistent.
Track List

Disc 1
01. I'll Remember April (2:54)
02. Indiana (2:45)
03. Somebody Loves Me (2:56)
04. I Should Care (3:02)
05. Bud's Bubble (2:36)
06 Off Minor (2:24)
07. Nice Work If You Can Get It (2:20)
08. Everything Happens to Me (2:41)
09. Bouncing with Bud (alt tk # 1) (3:05)
10 Bouncing with Bud (alt tk # 2) (3:15)
11. Bouncing with Bud (3:03)
12. Wail (alt tk) (2:43)
13. Wail (3:06)
14. Dance of Infidels (Alt) (2:52)
15. Dance of Infidels (2:54)
16. 52nd Street Theme (2:50)
17. You Go to My Head (3:15)
18. Ornithology (2:24)
19 Ornithology (alt tk) (3:11)
20. Un Poco Loco (alt tk # 1) (3:50)
21. Un Poco Loco (alt tk # 2) (4:32)
22. Un Poco Loco (4:45)
23. Over the Rainbow (2:57)

Disc 2
01. A Night in Tunisia (4:17)
02. A Night in Tunisia (alt tk) (3:53)
03. It Could Happen to You (alt tk) (2:24)
04. It Could Happen to You ( 3:15)
05. Parisian Thoroughfare (3:26)
06. Autumn in New York (2:55)
07. Reets and I (3:22)
08. Reets and I (alt tk) (2:34)
09. Sure Thing (2:42)
10. Collard Greens and Black Eyed Peas (alt tk) (2:13)
11. Collard Greens and Black Eyed Peas (3:05)
12. Polka Dots and Moonbeams (4:04)
13. I Want to Be Happy (2:53)
14. Audrey (2:58)
15. Glass Enclosure (2:24)
16. Embraceable You (2:51)
17. Burt Covers Bud (3:07)
18. My Heart Stood Still (3:20)
19. You'd Be So Nice to Come Home To (2:41)
20. Bags 'Groove (2:14)
21. My Devotion (3:05)
22. Stella by Starlight (2:10)
23. Woody' N You (3:00)

Disc 3
01. Blue Pearl (3:49)
02. Blue Pearl (alt tk) (4:04)
03. Keepin 'In The Groove (2:55)
04. Some Soul (6:59)
05. Frantic Fancies (4: 54)
06. Bud On Bach (2:31)
07. Idaho (5:18)
08. Do not Blame Me (7:33)
09. Moose The Mooche (5:47)
10. John's Abbey (alt tk) (2:26)
11. Sub City (alt tk) (2:35)
12. Sub City (4:33)
13. John's Abbey (5:39)
14. Buster Rides Again (5:30)

Disc 4
01. Dry Soul 01. (6:43)
02. Marmalade (4:32)
03. Monopoly (4:51)
04. Time Waits (5:07)
05. The Scene Changes (4:04)
06. With Down It ( 4:02)
07. Comin 'Up (alt. tk) (5:31)
08. Comin' Up (8:00)
09. Duid Deed (5:10)
10. Cleopatra's Dream (4:25)
11. Gettin 'There (5:06)
12. Crossin' The Channel (3:32)
13. Danceland (3:45)
14. Borderick (2:02)
15. Like Someone In Love (6:18)

Bud Powell plays piano on all tracks.

January 10, 1947, New York. Disc 1, tracks 1-8. Roost session – see Bud Powell Trio.
Curly Russell – bass
Max Roach – drums

August 9, 1949, WOR Studios, New York. Disc 1, tracks 9-19. See The Amazing Bud Powell, Vol. 1.
Fats Navarro – trumpet (tracks 9-16)
Sonny Rollins – tenor sax (tracks 9-16)
Tommy Potter – bass
Roy Haynes – drums

May 1, 1951, WOR Studios, New York. Disc 1, tracks 20-23 and disc 2, tracks 1-5. See The Amazing Bud Powell, Vol. 1 and The Amazing Bud Powell, Vol. 2.
Curly Russell – bass (except disc 1, track 23 and disc 2, tracks 3-4 – Powell solos)
Max Roach – drums (except disc 1, track 23 and disc 2, tracks 3-4 – Powell solos)

August 14, 1953, WOR Studios, New York. Disc 2, tracks 6-15. See The Amazing Bud Powell, Vol. 2.
George Duvivier – bass
Art Taylor – drums

September 1953, New York. Disc 2, tracks 16-23. Roost session – see Bud Powell Trio.
George Duvivier – bass
Art Taylor – drums

August 3, 1957, Rudy Van Gelder Studio, Hackensack, New Jersey. Disc 3, tracks 1-9. See Bud! The Amazing Bud Powell (Vol. 3).
Curtis Fuller – trombone (tracks 7-9)
Paul Chambers – bass (except track 6 – Powell solo)
Art Taylor – drums (except track 6 – Powell solo)

May 24, 1958, Rudy Van Gelder Studio, Hackensack, New Jersey. Disc 3, tracks 10-14 and disc 4, tracks 1-4. See Time Waits: The Amazing Bud Powell (Vol. 4).
Sam Jones – bass
Philly Joe Jones – drums

December 28, 1958, Rudy Van Gelder Studio, Hackensack, New Jersey. Disc 4, tracks 5-14. See The Scene Changes: The Amazing Bud Powell (Vol. 5).
Paul Chambers – bass
Art Taylor – drums

May 23, 1963, CBS Studios, Paris. Disc 4, track 15. See Dexter Gordon's Our Man in Paris.
Pierre Michelot – bass
Kenny Clarke – drums


Exact Audio Copy V1.3 from 2. September 2016

EAC extraction logfile from 28. October 2017, 18:14

Bud Powell / The Complete Blue Note and Roost Recordings

Used drive : HL-DT-STDVDRAM GU90N Adapter: 1 ID: 0

Read mode : Secure
Utilize accurate stream : Yes
Defeat audio cache : Yes
Make use of C2 pointers : No

Read offset correction : 102
Overread into Lead-In and Lead-Out : No
Fill up missing offset samples with silence : Yes
Delete leading and trailing silent blocks : No
Null samples used in CRC calculations : Yes
Used interface : Native Win32 interface for Win NT & 2000
Gap handling : Appended to previous track

Used output format : User Defined Encoder
Selected bitrate : 1024 kBit/s
Quality : High
Add ID3 tag : No
Command line compressor : C:\Program Files (x86)\Exact Audio Copy\Flac\flac.exe
Additional command line options : -8 -e -p -V -T "ARTIST=%artist%" -T "TITLE=%title%" -T "ALBUM=%albumtitle%" -T "DATE=%year%" -T "TRACKNUMBER=%tracknr%" -T "GENRE=%genre%" -T "PERFORMER=%albuminterpret%" -T "COMPOSER=%composer%" %haslyrics%–tag-from-file=LYRICS="%lyricsfile%"%haslyrics% -T "ALBUMARTIST=%albumartist%" -T "DISCNUMBER=%cdnumber%" -T "TOTALDISCS=%totalcds%" -T "TOTALTRACKS=%numtracks%" -T "COMMENT=%comment%" %source% -o %dest%


TOC of the extracted CD

Track | Start | Length | Start sector | End sector
––––––––––––––––––––––––––––-
1 | 0:00.32 | 2:53.48 | 32 | 13054
2 | 2:54.05 | 2:45.27 | 13055 | 25456
3 | 5:39.32 | 2:55.45 | 25457 | 38626
4 | 8:35.02 | 3:01.63 | 38627 | 52264
5 | 11:36.65 | 2:36.05 | 52265 | 63969
6 | 14:12.70 | 2:23.55 | 63970 | 74749
7 | 16:36.50 | 2:20.22 | 74750 | 85271
8 | 18:56.72 | 2:41.15 | 85272 | 97361
9 | 21:38.12 | 3:05.35 | 97362 | 111271
10 | 24:43.47 | 3:14.43 | 111272 | 125864
11 | 27:58.15 | 3:03.30 | 125865 | 139619
12 | 31:01.45 | 2:43.00 | 139620 | 151844
13 | 33:44.45 | 3:06.00 | 151845 | 165794
14 | 36:50.45 | 2:51.57 | 165795 | 178676
15 | 39:42.27 | 2:54.08 | 178677 | 191734
16 | 42:36.35 | 2:49.57 | 191735 | 204466
17 | 45:26.17 | 3:15.28 | 204467 | 219119
18 | 48:41.45 | 2:23.65 | 219120 | 229909
19 | 51:05.35 | 3:10.60 | 229910 | 244219
20 | 54:16.20 | 3:50.27 | 244220 | 261496
21 | 58:06.47 | 4:31.43 | 261497 | 281864
22 | 62:38.15 | 4:45.12 | 281865 | 303251
23 | 67:23.27 | 2:56.60 | 303252 | 316511


Track 1

Filename D:\flacs\hold\Bud Powell - The Complete Blue Note and Roost Recordings (1994) [FLAC]\Disc 1\01 I'll Remember April.wav

Pre-gap length 0:00:02.42

Peak level 78.4 %
Extraction speed 2.2 X
Track quality 99.9 %
Test CRC 200CB3A5
Copy CRC 200CB3A5
Accurately ripped (confidence 24) [C67FDDD5] (AR v2)
Copy OK

Track 2

Filename D:\flacs\hold\Bud Powell - The Complete Blue Note and Roost Recordings (1994) [FLAC]\Disc 1\02 Indiana.wav

Pre-gap length 0:00:02.66

Peak level 88.4 %
Extraction speed 2.3 X
Track quality 99.9 %
Test CRC 4BEB514C
Copy CRC 4BEB514C
Accurately ripped (confidence 25) [84A72E9D] (AR v2)
Copy OK

Track 3

Filename D:\flacs\hold\Bud Powell - The Complete Blue Note and Roost Recordings (1994) [FLAC]\Disc 1\03 Somebody Loves Me.wav

Pre-gap length 0:00:03.02

Peak level 92.4 %
Extraction speed 2.5 X
Track quality 99.9 %
Test CRC EBBB8ACC
Copy CRC EBBB8ACC
Accurately ripped (confidence 25) [5E63CE65] (AR v2)
Copy OK

Track 4

Filename D:\flacs\hold\Bud Powell - The Complete Blue Note and Roost Recordings (1994) [FLAC]\Disc 1\04 I Should Care.wav

Pre-gap length 0:00:02.66

Peak level 68.2 %
Extraction speed 3.3 X
Track quality 100.0 %
Test CRC 14D53398
Copy CRC 14D53398
Accurately ripped (confidence 25) [454361EE] (AR v2)
Copy OK

Track 5

Filename D:\flacs\hold\Bud Powell - The Complete Blue Note and Roost Recordings (1994) [FLAC]\Disc 1\05 Bud's Bubble.wav

Pre-gap length 0:00:02.84

Peak level 73.0 %
Extraction speed 3.4 X
Track quality 100.0 %
Test CRC B615F744
Copy CRC B615F744
Accurately ripped (confidence 25) [136DF5B2] (AR v2)
Copy OK

Track 6

Filename D:\flacs\hold\Bud Powell - The Complete Blue Note and Roost Recordings (1994) [FLAC]\Disc 1\06 Off Minor.wav

Pre-gap length 0:00:02.57

Peak level 89.0 %
Extraction speed 2.6 X
Track quality 99.9 %
Test CRC 864EBD9A
Copy CRC 864EBD9A
Accurately ripped (confidence 25) [927DE94F] (AR v2)
Copy OK

Track 7

Filename D:\flacs\hold\Bud Powell - The Complete Blue Note and Roost Recordings (1994) [FLAC]\Disc 1\07 Nice Work If You Can Get It.wav

Pre-gap length 0:00:03.13

Peak level 90.3 %
Extraction speed 3.6 X
Track quality 100.0 %
Test CRC 44C4C9F3
Copy CRC 44C4C9F3
Accurately ripped (confidence 25) [68D2E34D] (AR v2)
Copy OK

Track 8

Filename D:\flacs\hold\Bud Powell - The Complete Blue Note and Roost Recordings (1994) [FLAC]\Disc 1\08 Everything Happens to Me.wav

Pre-gap length 0:00:03.82

Peak level 56.5 %
Extraction speed 3.8 X
Track quality 100.0 %
Test CRC 3FCE7963
Copy CRC 3FCE7963
Accurately ripped (confidence 25) [834B2FBD] (AR v2)
Copy OK

Track 9

Filename D:\flacs\hold\Bud Powell - The Complete Blue Note and Roost Recordings (1994) [FLAC]\Disc 1\09 Bouncing With Bud (alternate take #1).wav

Pre-gap length 0:00:02.46

Peak level 77.1 %
Extraction speed 4.1 X
Track quality 100.0 %
Test CRC 5575F053
Copy CRC 5575F053
Accurately ripped (confidence 25) [04290163] (AR v2)
Copy OK

Track 10

Filename D:\flacs\hold\Bud Powell - The Complete Blue Note and Roost Recordings (1994) [FLAC]\Disc 1\10 Bouncing With Bud (alternate take #2).wav

Pre-gap length 0:00:01.09

Peak level 72.5 %
Extraction speed 4.3 X
Track quality 100.0 %
Test CRC AA2B2098
Copy CRC AA2B2098
Accurately ripped (confidence 25) [5C69BF00] (AR v2)
Copy OK

Track 11

Filename D:\flacs\hold\Bud Powell - The Complete Blue Note and Roost Recordings (1994) [FLAC]\Disc 1\11 Bouncing With Bud.wav

Pre-gap length 0:00:01.26

Peak level 72.4 %
Extraction speed 4.4 X
Track quality 100.0 %
Test CRC E31FBD2B
Copy CRC E31FBD2B
Accurately ripped (confidence 25) [4BCF63BF] (AR v2)
Copy OK

Track 12

Filename D:\flacs\hold\Bud Powell - The Complete Blue Note and Roost Recordings (1994) [FLAC]\Disc 1\12 Wail (alternate take).wav

Pre-gap length 0:00:01.44

Peak level 96.6 %
Extraction speed 3.3 X
Track quality 99.9 %
Test CRC C1E571BE
Copy CRC C1E571BE
Accurately ripped (confidence 25) [00FC7BE4] (AR v2)
Copy OK

Track 13

Filename D:\flacs\hold\Bud Powell - The Complete Blue Note and Roost Recordings (1994) [FLAC]\Disc 1\13 Wail.wav

Pre-gap length 0:00:01.80

Peak level 77.7 %
Extraction speed 4.7 X
Track quality 100.0 %
Test CRC 74EE5F9C
Copy CRC 74EE5F9C
Accurately ripped (confidence 25) [26E643F7] (AR v2)
Copy OK

Track 14

Filename D:\flacs\hold\Bud Powell - The Complete Blue Note and Roost Recordings (1994) [FLAC]\Disc 1\14 Dance of Infidels (alternate take).wav

Pre-gap length 0:00:02.26

Peak level 85.3 %
Extraction speed 4.8 X
Track quality 100.0 %
Test CRC 822F7967
Copy CRC 822F7967
Accurately ripped (confidence 25) [B8809756] (AR v2)
Copy OK

Track 15

Filename D:\flacs\hold\Bud Powell - The Complete Blue Note and Roost Recordings (1994) [FLAC]\Disc 1\15 Dance of Infidels.wav

Pre-gap length 0:00:02.20

Peak level 81.6 %
Extraction speed 4.9 X
Track quality 100.0 %
Test CRC A47FDB91
Copy CRC A47FDB91
Accurately ripped (confidence 25) [4B76F538] (AR v2)
Copy OK

Track 16

Filename D:\flacs\hold\Bud Powell - The Complete Blue Note and Roost Recordings (1994) [FLAC]\Disc 1\16 52nd Street Theme.wav

Pre-gap length 0:00:01.77

Peak level 83.2 %
Extraction speed 5.0 X
Track quality 100.0 %
Test CRC 70900729
Copy CRC 70900729
Accurately ripped (confidence 25) [83709D3F] (AR v2)
Copy OK

Track 17

Filename D:\flacs\hold\Bud Powell - The Complete Blue Note and Roost Recordings (1994) [FLAC]\Disc 1\17 You Go to My Head.wav

Pre-gap length 0:00:01.06

Peak level 63.2 %
Extraction speed 5.2 X
Track quality 100.0 %
Test CRC D4F4502A
Copy CRC D4F4502A
Accurately ripped (confidence 25) [5803D125] (AR v2)
Copy OK

Track 18

Filename D:\flacs\hold\Bud Powell - The Complete Blue Note and Roost Recordings (1994) [FLAC]\Disc 1\18 Ornithology.wav

Pre-gap length 0:00:01.34

Peak level 72.0 %
Extraction speed 5.0 X
Track quality 100.0 %
Test CRC 1F7F8D1E
Copy CRC 1F7F8D1E
Accurately ripped (confidence 25) [05030AEB] (AR v2)
Copy OK

Track 19

Filename D:\flacs\hold\Bud Powell - The Complete Blue Note and Roost Recordings (1994) [FLAC]\Disc 1\19 Ornithology (alternate take).wav

Pre-gap length 0:00:01.70

Peak level 79.3 %
Extraction speed 5.3 X
Track quality 100.0 %
Test CRC 04A67928
Copy CRC 04A67928
Accurately ripped (confidence 25) [B222CF8E] (AR v2)
Copy OK

Track 20

Filename D:\flacs\hold\Bud Powell - The Complete Blue Note and Roost Recordings (1994) [FLAC]\Disc 1\20 Un Poco Loco (alternate take #1).wav

Pre-gap length 0:00:01.84

Peak level 73.2 %
Extraction speed 4.6 X
Track quality 100.0 %
Test CRC 0A256CF9
Copy CRC 0A256CF9
Accurately ripped (confidence 25) [EA301545] (AR v2)
Copy OK

Track 21

Filename D:\flacs\hold\Bud Powell - The Complete Blue Note and Roost Recordings (1994) [FLAC]\Disc 1\21 Un Poco Loco (alternate take #2).wav

Pre-gap length 0:00:01.89

Peak level 79.4 %
Extraction speed 4.9 X
Track quality 99.9 %
Test CRC E77A6C9E
Copy CRC E77A6C9E
Accurately ripped (confidence 24) [41C28F78] (AR v2)
Copy OK

Track 22

Filename D:\flacs\hold\Bud Powell - The Complete Blue Note and Roost Recordings (1994) [FLAC]\Disc 1\22 Un Poco Loco.wav

Pre-gap length 0:00:01.04

Peak level 82.2 %
Extraction speed 5.1 X
Track quality 99.9 %
Test CRC 6EC4630F
Copy CRC 6EC4630F
Accurately ripped (confidence 24) [6F7D6AA3] (AR v2)
Copy OK

Track 23

Filename D:\flacs\hold\Bud Powell - The Complete Blue Note and Roost Recordings (1994) [FLAC]\Disc 1\23 Over the Rainbow.wav

Pre-gap length 0:00:01.56

Peak level 74.1 %
Extraction speed 5.9 X
Track quality 100.0 %
Test CRC C525E93D
Copy CRC C525E93D
Accurately ripped (confidence 24) [F9368D4C] (AR v2)
Copy OK


All tracks accurately ripped

No errors occurred

End of status report

–– CUETools DB Plugin V2.1.6

[CTDB TOCID: 0EM0s0K4UTjZPVcZQkk1dkuwN6o-] found
Submit result: 0EM0s0K4UTjZPVcZQkk1dkuwN6o- has been confirmed
Track | CTDB Status
1 | (12/12) Accurately ripped
2 | (12/12) Accurately ripped
3 | (12/12) Accurately ripped
4 | (12/12) Accurately ripped
5 | (12/12) Accurately ripped
6 | (12/12) Accurately ripped
7 | (12/12) Accurately ripped
8 | (12/12) Accurately ripped
9 | (12/12) Accurately ripped
10 | (12/12) Accurately ripped
11 | (12/12) Accurately ripped
12 | (12/12) Accurately ripped
13 | (12/12) Accurately ripped
14 | (12/12) Accurately ripped
15 | (12/12) Accurately ripped
16 | (12/12) Accurately ripped
17 | (12/12) Accurately ripped
18 | (12/12) Accurately ripped
19 | (12/12) Accurately ripped
20 | (12/12) Accurately ripped
21 | (12/12) Accurately ripped
22 | (12/12) Accurately ripped
23 | (12/12) Accurately ripped


==== Log checksum E2CBF0ECD9E055453CD9A6ED188CE036E97BCB857294DFA8F2AC2B66BC6FFE64 ====
Exact Audio Copy V1.3 from 2. September 2016

EAC extraction logfile from 6. November 2017, 23:56

Bud Powell / The Complete Blue Note and Roost Recordings

Used drive : HL-DT-STDVDRAM GU90N Adapter: 1 ID: 0

Read mode : Secure
Utilize accurate stream : Yes
Defeat audio cache : Yes
Make use of C2 pointers : No

Read offset correction : 102
Overread into Lead-In and Lead-Out : No
Fill up missing offset samples with silence : Yes
Delete leading and trailing silent blocks : No
Null samples used in CRC calculations : Yes
Used interface : Native Win32 interface for Win NT & 2000
Gap handling : Appended to previous track

Used output format : User Defined Encoder
Selected bitrate : 1024 kBit/s
Quality : High
Add ID3 tag : No
Command line compressor : C:\Program Files (x86)\Exact Audio Copy\Flac\flac.exe
Additional command line options : -8 -e -p -V -T "ARTIST=%artist%" -T "TITLE=%title%" -T "ALBUM=%albumtitle%" -T "DATE=%year%" -T "TRACKNUMBER=%tracknr%" -T "GENRE=%genre%" -T "PERFORMER=%albuminterpret%" -T "COMPOSER=%composer%" %haslyrics%–tag-from-file=LYRICS="%lyricsfile%"%haslyrics% -T "ALBUMARTIST=%albumartist%" -T "DISCNUMBER=%cdnumber%" -T "TOTALDISCS=%totalcds%" -T "TOTALTRACKS=%numtracks%" -T "COMMENT=%comment%" %source% -o %dest%


TOC of the extracted CD

Track | Start | Length | Start sector | End sector
––––––––––––––––––––––––––––-
1 | 0:00.00 | 4:16.67 | 0 | 19266
2 | 4:16.67 | 3:52.63 | 19267 | 36729
3 | 8:09.55 | 2:24.02 | 36730 | 47531
4 | 10:33.57 | 3:15.18 | 47532 | 62174
5 | 13:49.00 | 3:26.20 | 62175 | 77644
6 | 17:15.20 | 2:55.17 | 77645 | 90786
7 | 20:10.37 | 3:22.13 | 90787 | 105949
8 | 23:32.50 | 2:33.70 | 105950 | 117494
9 | 26:06.45 | 2:41.47 | 117495 | 129616
10 | 28:48.17 | 2:12.60 | 129617 | 139576
11 | 31:01.02 | 3:04.48 | 139577 | 153424
12 | 34:05.50 | 4:03.57 | 153425 | 171706
13 | 38:09.32 | 2:52.53 | 171707 | 184659
14 | 41:02.10 | 2:57.45 | 184660 | 197979
15 | 43:59.55 | 2:23.67 | 197980 | 208771
16 | 46:23.47 | 2:51.30 | 208772 | 221626
17 | 49:15.02 | 3:06.45 | 221627 | 235621
18 | 52:21.47 | 3:19.50 | 235622 | 250596
19 | 55:41.22 | 2:40.58 | 250597 | 262654
20 | 58:22.05 | 2:14.17 | 262655 | 272721
21 | 60:36.22 | 3:04.53 | 272722 | 286574
22 | 63:41.00 | 2:09.72 | 286575 | 296321
23 | 65:50.72 | 3:00.00 | 296322 | 309821


Track 1

Filename D:\flacs\hold\Bud Powell - The Complete Blue Note and Roost Recordings (1994) [FLAC]\Disc 2\01 A Night In Tunisia.wav

Pre-gap length 0:00:02.00

Peak level 88.2 %
Extraction speed 1.3 X
Track quality 100.0 %
Test CRC 7DF7E930
Copy CRC 7DF7E930
Accurately ripped (confidence 24) [12BCB0CE] (AR v2)
Copy OK

Track 2

Filename D:\flacs\hold\Bud Powell - The Complete Blue Note and Roost Recordings (1994) [FLAC]\Disc 2\02 A Night in Tunisia (alternate take).wav

Pre-gap length 0:00:02.40

Peak level 94.3 %
Extraction speed 1.4 X
Track quality 100.0 %
Test CRC 84C7020D
Copy CRC 84C7020D
Accurately ripped (confidence 24) [00BCEF9E] (AR v2)
Copy OK

Track 3

Filename D:\flacs\hold\Bud Powell - The Complete Blue Note and Roost Recordings (1994) [FLAC]\Disc 2\03 It Could Happen to You (alternate take).wav

Pre-gap length 0:00:01.53

Peak level 78.0 %
Extraction speed 1.4 X
Track quality 100.0 %
Test CRC 7B20BFEB
Copy CRC 7B20BFEB
Accurately ripped (confidence 24) [DA5BE675] (AR v2)
Copy OK

Track 4

Filename D:\flacs\hold\Bud Powell - The Complete Blue Note and Roost Recordings (1994) [FLAC]\Disc 2\04 It Could Happen To You.wav

Pre-gap length 0:00:01.22

Peak level 70.6 %
Extraction speed 1.5 X
Track quality 100.0 %
Test CRC 1551919E
Copy CRC 1551919E
Accurately ripped (confidence 24) [80507606] (AR v2)
Copy OK

Track 5

Filename D:\flacs\hold\Bud Powell - The Complete Blue Note and Roost Recordings (1994) [FLAC]\Disc 2\05 Parisian Thoroughfare.wav

Pre-gap length 0:00:02.20

Peak level 67.1 %
Extraction speed 1.7 X
Track quality 100.0 %
Test CRC 81DCCF29
Copy CRC 81DCCF29
Accurately ripped (confidence 24) [3B9D1513] (AR v2)
Copy OK

Track 6

Filename D:\flacs\hold\Bud Powell - The Complete Blue Note and Roost Recordings (1994) [FLAC]\Disc 2\06 Autumn In New York.wav

Pre-gap length 0:00:01.17

Peak level 67.4 %
Extraction speed 1.7 X
Track quality 100.0 %
Test CRC 64B9EC93
Copy CRC 64B9EC93
Accurately ripped (confidence 24) [3B4A8D8D] (AR v2)
Copy OK

Track 7

Filename D:\flacs\hold\Bud Powell - The Complete Blue Note and Roost Recordings (1994) [FLAC]\Disc 2\07 Reets And I.wav

Pre-gap length 0:00:01.80

Peak level 81.9 %
Extraction speed 1.6 X
Track quality 99.9 %
Test CRC 063349EB
Copy CRC 063349EB
Accurately ripped (confidence 24) [D712330F] (AR v2)
Copy OK

Track 8

Filename D:\flacs\hold\Bud Powell - The Complete Blue Note and Roost Recordings (1994) [FLAC]\Disc 2\08 Reets and I (alternate take).wav

Pre-gap length 0:00:01.46

Peak level 99.8 %
Extraction speed 1.7 X
Track quality 100.0 %
Test CRC 32831EF7
Copy CRC 32831EF7
Accurately ripped (confidence 24) [71F02A96] (AR v2)
Copy OK

Track 9

Filename D:\flacs\hold\Bud Powell - The Complete Blue Note and Roost Recordings (1994) [FLAC]\Disc 2\09 Sure Thing.wav

Pre-gap length 0:00:01.77

Peak level 75.7 %
Extraction speed 1.8 X
Track quality 100.0 %
Test CRC 32118B6A
Copy CRC 32118B6A
Accurately ripped (confidence 24) [820F57A7] (AR v2)
Copy OK

Track 10

Filename D:\flacs\hold\Bud Powell - The Complete Blue Note and Roost Recordings (1994) [FLAC]\Disc 2\10 Collard Greens and Black Eyed Peas (alternate take).wav

Pre-gap length 0:00:01.49

Peak level 84.6 %
Extraction speed 1.5 X
Track quality 99.9 %
Test CRC 36C8AE0E
Copy CRC 36C8AE0E
Accurately ripped (confidence 24) [316E8C8D] (AR v2)
Copy OK

Track 11

Filename D:\flacs\hold\Bud Powell - The Complete Blue Note and Roost Recordings (1994) [FLAC]\Disc 2\11 Collard Greens and Black Eyed Peas.wav

Pre-gap length 0:00:02.29

Peak level 89.9 %
Extraction speed 2.0 X
Track quality 100.0 %
Test CRC 39CFDC21
Copy CRC 39CFDC21
Accurately ripped (confidence 24) [3CCA477F] (AR v2)
Copy OK

Track 12

Filename D:\flacs\hold\Bud Powell - The Complete Blue Note and Roost Recordings (1994) [FLAC]\Disc 2\12 Polka Dots And Moonbeams.wav

Pre-gap length 0:00:01.80

Peak level 95.6 %
Extraction speed 2.2 X
Track quality 100.0 %
Test CRC BDCAB15C
Copy CRC BDCAB15C
Accurately ripped (confidence 24) [D6233850] (AR v2)
Copy OK

Track 13

Filename D:\flacs\hold\Bud Powell - The Complete Blue Note and Roost Recordings (1994) [FLAC]\Disc 2\13 I Want To Be Happy.wav

Pre-gap length 0:00:01.60

Peak level 98.6 %
Extraction speed 2.1 X
Track quality 100.0 %
Test CRC C4B1C6F4
Copy CRC C4B1C6F4
Accurately ripped (confidence 24) [F801FE8F] (AR v2)
Copy OK

Track 14

Filename D:\flacs\hold\Bud Powell - The Complete Blue Note and Roost Recordings (1994) [FLAC]\Disc 2\14 Audrey.wav

Pre-gap length 0:00:01.26

Peak level 92.5 %
Extraction speed 1.9 X
Track quality 99.9 %
Test CRC 6EFEC72B
Copy CRC 6EFEC72B
Accurately ripped (confidence 24) [770E49D4] (AR v2)
Copy OK

Track 15

Filename D:\flacs\hold\Bud Powell - The Complete Blue Note and Roost Recordings (1994) [FLAC]\Disc 2\15 Glass Enclosure.wav

Pre-gap length 0:00:01.60

Peak level 74.3 %
Extraction speed 2.2 X
Track quality 100.0 %
Test CRC 2AEDB05A
Copy CRC 2AEDB05A
Accurately ripped (confidence 25) [E7DEB082] (AR v2)
Copy OK

Track 16

Filename D:\flacs\hold\Bud Powell - The Complete Blue Note and Roost Recordings (1994) [FLAC]\Disc 2\16 Embraceable You.wav

Pre-gap length 0:00:01.62

Peak level 72.5 %
Extraction speed 2.3 X
Track quality 100.0 %
Test CRC 68BF2E16
Copy CRC 68BF2E16
Accurately ripped (confidence 25) [0B8518EB] (AR v2)
Copy OK

Track 17

Filename D:\flacs\hold\Bud Powell - The Complete Blue Note and Roost Recordings (1994) [FLAC]\Disc 2\17 Burt Covers Bud.wav

Pre-gap length 0:00:02.62

Peak level 100.0 %
Extraction speed 2.3 X
Track quality 100.0 %
Test CRC F22826C9
Copy CRC F22826C9
Accurately ripped (confidence 24) [C20CF86B] (AR v2)
Copy OK

Track 18

Filename D:\flacs\hold\Bud Powell - The Complete Blue Note and Roost Recordings (1994) [FLAC]\Disc 2\18 My Heart Stood Still.wav

Pre-gap length 0:00:02.96

Peak level 88.9 %
Extraction speed 2.4 X
Track quality 100.0 %
Test CRC 82835AF7
Copy CRC 82835AF7
Accurately ripped (confidence 25) [FE505D1A] (AR v2)
Copy OK

Track 19

Filename D:\flacs\hold\Bud Powell - The Complete Blue Note and Roost Recordings (1994) [FLAC]\Disc 2\19 You'd Be So Nice To Come Home To.wav

Pre-gap length 0:00:03.80

Peak level 99.2 %
Extraction speed 2.4 X
Track quality 100.0 %
Test CRC EED03F60
Copy CRC EED03F60
Accurately ripped (confidence 24) [9F110E1A] (AR v2)
Copy OK

Track 20

Filename D:\flacs\hold\Bud Powell - The Complete Blue Note and Roost Recordings (1994) [FLAC]\Disc 2\20 Bag's Groove.wav

Pre-gap length 0:00:03.93

Peak level 87.9 %
Extraction speed 2.3 X
Track quality 100.0 %
Test CRC 80E1A3BE
Copy CRC 80E1A3BE
Accurately ripped (confidence 24) [6A979DE0] (AR v2)
Copy OK

Track 21

Filename D:\flacs\hold\Bud Powell - The Complete Blue Note and Roost Recordings (1994) [FLAC]\Disc 2\21 My Devotion.wav

Pre-gap length 0:00:03.02

Peak level 77.2 %
Extraction speed 2.6 X
Track quality 100.0 %
Test CRC 0DE10195
Copy CRC 0DE10195
Accurately ripped (confidence 25) [20317C56] (AR v2)
Copy OK

Track 22

Filename D:\flacs\hold\Bud Powell - The Complete Blue Note and Roost Recordings (1994) [FLAC]\Disc 2\22 Stella By Starlight.wav

Pre-gap length 0:00:02.70

Peak level 91.1 %
Extraction speed 2.4 X
Track quality 100.0 %
Test CRC 434816B8
Copy CRC 434816B8
Accurately ripped (confidence 24) [912F4DD1] (AR v2)
Copy OK

Track 23

Filename D:\flacs\hold\Bud Powell - The Complete Blue Note and Roost Recordings (1994) [FLAC]\Disc 2\23 Woody 'n You.wav

Pre-gap length 0:00:03.42

Peak level 93.5 %
Extraction speed 2.6 X
Track quality 100.0 %
Test CRC A0970AAF
Copy CRC A0970AAF
Accurately ripped (confidence 16) [D5D735A4] (AR v2)
Copy OK


All tracks accurately ripped

No errors occurred

End of status report

–– CUETools DB Plugin V2.1.6

[CTDB TOCID: xVtsL_PL0CWLAsVZ2l84r0LREgs-] found
Submit result: xVtsL_PL0CWLAsVZ2l84r0LREgs- has been confirmed
Track | CTDB Status
1 | (18/18) Accurately ripped
2 | (18/18) Accurately ripped
3 | (18/18) Accurately ripped
4 | (18/18) Accurately ripped
5 | (18/18) Accurately ripped
6 | (18/18) Accurately ripped
7 | (18/18) Accurately ripped
8 | (18/18) Accurately ripped
9 | (18/18) Accurately ripped
10 | (18/18) Accurately ripped
11 | (18/18) Accurately ripped
12 | (18/18) Accurately ripped
13 | (18/18) Accurately ripped
14 | (18/18) Accurately ripped
15 | (18/18) Accurately ripped
16 | (18/18) Accurately ripped
17 | (18/18) Accurately ripped
18 | (18/18) Accurately ripped
19 | (18/18) Accurately ripped
20 | (18/18) Accurately ripped
21 | (18/18) Accurately ripped
22 | (18/18) Accurately ripped
23 | (13/18) Accurately ripped, or (2/18) differs in 63 samples @00:20:25


==== Log checksum 9B914BC3C3DA36DB13044A12CF1C60536DD123402B27D0C62D083B3E7C85B11E ====
Exact Audio Copy V1.3 from 2. September 2016

EAC extraction logfile from 28. October 2017, 22:53

Bud Powell / The Complete Blue Note and Roost Recordings

Used drive : HL-DT-STDVDRAM GU90N Adapter: 1 ID: 0

Read mode : Secure
Utilize accurate stream : Yes
Defeat audio cache : Yes
Make use of C2 pointers : No

Read offset correction : 102
Overread into Lead-In and Lead-Out : No
Fill up missing offset samples with silence : Yes
Delete leading and trailing silent blocks : No
Null samples used in CRC calculations : Yes
Used interface : Native Win32 interface for Win NT & 2000
Gap handling : Appended to previous track

Used output format : User Defined Encoder
Selected bitrate : 1024 kBit/s
Quality : High
Add ID3 tag : No
Command line compressor : C:\Program Files (x86)\Exact Audio Copy\Flac\flac.exe
Additional command line options : -8 -e -p -V -T "ARTIST=%artist%" -T "TITLE=%title%" -T "ALBUM=%albumtitle%" -T "DATE=%year%" -T "TRACKNUMBER=%tracknr%" -T "GENRE=%genre%" -T "PERFORMER=%albuminterpret%" -T "COMPOSER=%composer%" %haslyrics%–tag-from-file=LYRICS="%lyricsfile%"%haslyrics% -T "ALBUMARTIST=%albumartist%" -T "DISCNUMBER=%cdnumber%" -T "TOTALDISCS=%totalcds%" -T "TOTALTRACKS=%numtracks%" -T "COMMENT=%comment%" %source% -o %dest%


TOC of the extracted CD

Track | Start | Length | Start sector | End sector
––––––––––––––––––––––––––––-
1 | 0:00.00 | 3:49.02 | 0 | 17176
2 | 3:49.02 | 4:04.08 | 17177 | 35484
3 | 7:53.10 | 2:55.25 | 35485 | 48634
4 | 10:48.35 | 6:59.32 | 48635 | 80091
5 | 17:47.67 | 4:54.03 | 80092 | 102144
6 | 22:41.70 | 2:31.15 | 102145 | 113484
7 | 25:13.10 | 5:17.70 | 113485 | 137329
8 | 30:31.05 | 7:32.52 | 137330 | 171281
9 | 38:03.57 | 5:46.65 | 171282 | 197296
10 | 43:50.47 | 2:26.18 | 197297 | 208264
11 | 46:16.65 | 2:34.67 | 208265 | 219881
12 | 48:51.57 | 4:33.05 | 219882 | 240361
13 | 53:24.62 | 5:38.48 | 240362 | 265759
14 | 59:03.35 | 5:30.37 | 265760 | 290546


Track 1

Filename D:\flacs\hold\Bud Powell - The Complete Blue Note and Roost Recordings (1994) [FLAC]\Disc 3\01 Blue Pearl.wav

Pre-gap length 0:00:02.00

Peak level 100.0 %
Extraction speed 2.4 X
Track quality 100.0 %
Test CRC 7623170E
Copy CRC 7623170E
Accurately ripped (confidence 24) [4AC1C534] (AR v2)
Copy OK

Track 2

Filename D:\flacs\hold\Bud Powell - The Complete Blue Note and Roost Recordings (1994) [FLAC]\Disc 3\02 Blue Pearl (alternate take).wav

Pre-gap length 0:00:01.80

Peak level 100.0 %
Extraction speed 3.2 X
Track quality 100.0 %
Test CRC 25CE0E97
Copy CRC 25CE0E97
Accurately ripped (confidence 24) [B7626EDF] (AR v2)
Copy OK

Track 3

Filename D:\flacs\hold\Bud Powell - The Complete Blue Note and Roost Recordings (1994) [FLAC]\Disc 3\03 Keepin' In The Groove.wav

Pre-gap length 0:00:01.66

Peak level 100.0 %
Extraction speed 3.3 X
Track quality 100.0 %
Test CRC 15A59515
Copy CRC 15A59515
Accurately ripped (confidence 24) [726FF6DD] (AR v2)
Copy OK

Track 4

Filename D:\flacs\hold\Bud Powell - The Complete Blue Note and Roost Recordings (1994) [FLAC]\Disc 3\04 Some Soul.wav

Pre-gap length 0:00:01.77

Peak level 96.9 %
Extraction speed 4.0 X
Track quality 100.0 %
Test CRC E457E2BA
Copy CRC E457E2BA
Accurately ripped (confidence 24) [F4945CA7] (AR v2)
Copy OK

Track 5

Filename D:\flacs\hold\Bud Powell - The Complete Blue Note and Roost Recordings (1994) [FLAC]\Disc 3\05 Frantic Fancies.wav

Pre-gap length 0:00:01.80

Peak level 100.0 %
Extraction speed 4.2 X
Track quality 100.0 %
Test CRC 85770D3A
Copy CRC 85770D3A
Accurately ripped (confidence 24) [9DB118C3] (AR v2)
Copy OK

Track 6

Filename D:\flacs\hold\Bud Powell - The Complete Blue Note and Roost Recordings (1994) [FLAC]\Disc 3\06 Bud On Bach.wav

Pre-gap length 0:00:02.64

Peak level 96.2 %
Extraction speed 4.0 X
Track quality 100.0 %
Test CRC D1179D9E
Copy CRC D1179D9E
Accurately ripped (confidence 24) [3478C041] (AR v2)
Copy OK

Track 7

Filename D:\flacs\hold\Bud Powell - The Complete Blue Note and Roost Recordings (1994) [FLAC]\Disc 3\07 Idaho.wav

Pre-gap length 0:00:00.60

Peak level 98.4 %
Extraction speed 4.7 X
Track quality 100.0 %
Test CRC 4DE7CACD
Copy CRC 4DE7CACD
Accurately ripped (confidence 24) [AB7388D1] (AR v2)
Copy OK

Track 8

Filename D:\flacs\hold\Bud Powell - The Complete Blue Note and Roost Recordings (1994) [FLAC]\Disc 3\08 Don't Blame Me.wav

Pre-gap length 0:00:01.84

Peak level 99.1 %
Extraction speed 5.1 X
Track quality 100.0 %
Test CRC 5AE1F8F7
Copy CRC 5AE1F8F7
Accurately ripped (confidence 24) [2B75C971] (AR v2)
Copy OK

Track 9

Filename D:\flacs\hold\Bud Powell - The Complete Blue Note and Roost Recordings (1994) [FLAC]\Disc 3\09 Moose The Mooche.wav

Pre-gap length 0:00:01.60

Peak level 99.7 %
Extraction speed 5.3 X
Track quality 100.0 %
Test CRC DB440B59
Copy CRC DB440B59
Accurately ripped (confidence 24) [2FE9400E] (AR v2)
Copy OK

Track 10

Filename D:\flacs\hold\Bud Powell - The Complete Blue Note and Roost Recordings (1994) [FLAC]\Disc 3\10 John's Abbey (alternate take).wav

Pre-gap length 0:00:00.93

Peak level 100.0 %
Extraction speed 4.9 X
Track quality 100.0 %
Test CRC CA10CB6C
Copy CRC CA10CB6C
Accurately ripped (confidence 24) [5FB9739F] (AR v2)
Copy OK

Track 11

Filename D:\flacs\hold\Bud Powell - The Complete Blue Note and Roost Recordings (1994) [FLAC]\Disc 3\11 Sub City (alternate take).wav

Pre-gap length 0:00:01.00

Peak level 99.7 %
Extraction speed 4.9 X
Track quality 100.0 %
Test CRC B7BA917E
Copy CRC B7BA917E
Accurately ripped (confidence 24) [5E734BFD] (AR v2)
Copy OK

Track 12

Filename D:\flacs\hold\Bud Powell - The Complete Blue Note and Roost Recordings (1994) [FLAC]\Disc 3\12 Sub City.wav

Pre-gap length 0:00:00.29

Peak level 100.0 %
Extraction speed 5.6 X
Track quality 100.0 %
Test CRC D75A6C8E
Copy CRC D75A6C8E
Accurately ripped (confidence 23) [799C35F2] (AR v2)
Copy OK

Track 13

Filename D:\flacs\hold\Bud Powell - The Complete Blue Note and Roost Recordings (1994) [FLAC]\Disc 3\13 John's Abbey.wav

Pre-gap length 0:00:00.80

Peak level 100.0 %
Extraction speed 5.1 X
Track quality 99.9 %
Test CRC C09E9CD1
Copy CRC C09E9CD1
Accurately ripped (confidence 22) [45193DC8] (AR v2)
Copy OK

Track 14

Filename D:\flacs\hold\Bud Powell - The Complete Blue Note and Roost Recordings (1994) [FLAC]\Disc 3\14 Buster Rides Again.wav

Pre-gap length 0:00:00.84

Peak level 100.0 %
Extraction speed 4.3 X
Track quality 100.0 %
Test CRC 6FDC941E
Copy CRC 6FDC941E
Accurately ripped (confidence 23) [8B817D1B] (AR v2)
Copy OK


All tracks accurately ripped

No errors occurred

End of status report

–– CUETools DB Plugin V2.1.6

[CTDB TOCID: DO13ATYsYRMcF6LpUV.LfHB5o6Y-] found
Submit result: DO13ATYsYRMcF6LpUV.LfHB5o6Y- has been confirmed
Track | CTDB Status
1 | (21/21) Accurately ripped
2 | (21/21) Accurately ripped
3 | (21/21) Accurately ripped
4 | (21/21) Accurately ripped
5 | (21/21) Accurately ripped
6 | (21/21) Accurately ripped
7 | (21/21) Accurately ripped
8 | (20/21) Accurately ripped
9 | (21/21) Accurately ripped
10 | (21/21) Accurately ripped
11 | (20/21) Accurately ripped
12 | (20/21) Accurately ripped
13 | (21/21) Accurately ripped
14 | (21/21) Accurately ripped


==== Log checksum E647DED4F8D1B67299A6370E88E84BC2FA5C6C0121F6156FA694D5BC658790EC ====
Exact Audio Copy V1.3 from 2. September 2016

EAC extraction logfile from 7. November 2017, 14:21

Bud Powell / The Complete Blue Note and Roost Recordings

Used drive : HL-DT-STDVDRAM GU90N Adapter: 1 ID: 0

Read mode : Secure
Utilize accurate stream : Yes
Defeat audio cache : Yes
Make use of C2 pointers : No

Read offset correction : 102
Overread into Lead-In and Lead-Out : No
Fill up missing offset samples with silence : Yes
Delete leading and trailing silent blocks : No
Null samples used in CRC calculations : Yes
Used interface : Native Win32 interface for Win NT & 2000
Gap handling : Appended to previous track

Used output format : User Defined Encoder
Selected bitrate : 1024 kBit/s
Quality : High
Add ID3 tag : No
Command line compressor : C:\Program Files (x86)\Exact Audio Copy\Flac\flac.exe
Additional command line options : -8 -e -p -V -T "ARTIST=%artist%" -T "TITLE=%title%" -T "ALBUM=%albumtitle%" -T "DATE=%year%" -T "TRACKNUMBER=%tracknr%" -T "GENRE=%genre%" -T "PERFORMER=%albuminterpret%" -T "COMPOSER=%composer%" %haslyrics%–tag-from-file=LYRICS="%lyricsfile%"%haslyrics% -T "ALBUMARTIST=%albumartist%" -T "DISCNUMBER=%cdnumber%" -T "TOTALDISCS=%totalcds%" -T "TOTALTRACKS=%numtracks%" -T "COMMENT=%comment%" %source% -o %dest%


TOC of the extracted CD

Track | Start | Length | Start sector | End sector
––––––––––––––––––––––––––––-
1 | 0:00.00 | 6:43.05 | 0 | 30229
2 | 6:43.05 | 4:31.40 | 30230 | 50594
3 | 11:14.45 | 4:51.22 | 50595 | 72441
4 | 16:05.67 | 5:06.53 | 72442 | 95444
5 | 21:12.45 | 4:04.30 | 95445 | 113774
6 | 25:17.00 | 4:01.67 | 113775 | 131916
7 | 29:18.67 | 5:30.53 | 131917 | 156719
8 | 34:49.45 | 8:00.07 | 156720 | 192726
9 | 42:49.52 | 5:09.58 | 192727 | 215959
10 | 47:59.35 | 4:24.50 | 215960 | 235809
11 | 52:24.10 | 5:05.60 | 235810 | 258744
12 | 57:29.70 | 3:32.12 | 258745 | 274656
13 | 61:02.07 | 3:45.13 | 274657 | 291544
14 | 64:47.20 | 2:01.42 | 291545 | 300661
15 | 66:48.62 | 6:18.18 | 300662 | 329029


Track 1

Filename D:\flacs\hold\Bud Powell - The Complete Blue Note and Roost Recordings (1994) [FLAC]\Disc 4\01 Dry Soul.wav

Pre-gap length 0:00:02.00

Peak level 100.0 %
Extraction speed 1.3 X
Track quality 99.9 %
Test CRC E596BFE6
Copy CRC E596BFE6
Accurately ripped (confidence 24) [DAE75902] (AR v2)
Copy OK

Track 2

Filename D:\flacs\hold\Bud Powell - The Complete Blue Note and Roost Recordings (1994) [FLAC]\Disc 4\02 Marmalade.wav

Pre-gap length 0:00:00.77

Peak level 100.0 %
Extraction speed 1.5 X
Track quality 100.0 %
Test CRC 3567AF6B
Copy CRC 3567AF6B
Accurately ripped (confidence 24) [B4CFE9FA] (AR v2)
Copy OK

Track 3

Filename D:\flacs\hold\Bud Powell - The Complete Blue Note and Roost Recordings (1994) [FLAC]\Disc 4\03 Monopoly.wav

Pre-gap length 0:00:01.17

Peak level 100.0 %
Extraction speed 1.7 X
Track quality 100.0 %
Test CRC 18C810D7
Copy CRC 18C810D7
Accurately ripped (confidence 24) [1F5A52D2] (AR v2)
Copy OK

Track 4

Filename D:\flacs\hold\Bud Powell - The Complete Blue Note and Roost Recordings (1994) [FLAC]\Disc 4\04 Time Waits.wav

Pre-gap length 0:00:02.22

Peak level 96.4 %
Extraction speed 1.8 X
Track quality 100.0 %
Test CRC B893D4F5
Copy CRC B893D4F5
Accurately ripped (confidence 24) [D0F74DB5] (AR v2)
Copy OK

Track 5

Filename D:\flacs\hold\Bud Powell - The Complete Blue Note and Roost Recordings (1994) [FLAC]\Disc 4\05 The Scene Changes.wav

Pre-gap length 0:00:01.80

Peak level 96.8 %
Extraction speed 1.9 X
Track quality 100.0 %
Test CRC 140DEB8A
Copy CRC 140DEB8A
Accurately ripped (confidence 24) [6ED77734] (AR v2)
Copy OK

Track 6

Filename D:\flacs\hold\Bud Powell - The Complete Blue Note and Roost Recordings (1994) [FLAC]\Disc 4\06 Down With It.wav

Pre-gap length 0:00:01.57

Peak level 97.5 %
Extraction speed 1.9 X
Track quality 100.0 %
Test CRC 80C95A0A
Copy CRC 80C95A0A
Accurately ripped (confidence 23) [CAA09132] (AR v2)
Copy OK

Track 7

Filename D:\flacs\hold\Bud Powell - The Complete Blue Note and Roost Recordings (1994) [FLAC]\Disc 4\07 Comin' Up (alternate take).wav

Pre-gap length 0:00:01.36

Peak level 99.0 %
Extraction speed 2.1 X
Track quality 100.0 %
Test CRC 9C873EEF
Copy CRC 9C873EEF
Accurately ripped (confidence 24) [340E80F4] (AR v2)
Copy OK

Track 8

Filename D:\flacs\hold\Bud Powell - The Complete Blue Note and Roost Recordings (1994) [FLAC]\Disc 4\08 Comin' Up.wav

Pre-gap length 0:00:02.26

Peak level 97.2 %
Extraction speed 2.3 X
Track quality 100.0 %
Test CRC F8FF2331
Copy CRC F8FF2331
Accurately ripped (confidence 23) [2F9B68DE] (AR v2)
Copy OK

Track 9

Filename D:\flacs\hold\Bud Powell - The Complete Blue Note and Roost Recordings (1994) [FLAC]\Disc 4\09 Duid Deed.wav

Pre-gap length 0:00:01.66

Peak level 89.8 %
Extraction speed 2.1 X
Track quality 99.9 %
Test CRC 5A8744B4
Copy CRC 5A8744B4
Accurately ripped (confidence 23) [0995FAE5] (AR v2)
Copy OK

Track 10

Filename D:\flacs\hold\Bud Powell - The Complete Blue Note and Roost Recordings (1994) [FLAC]\Disc 4\10 Cleopatra's Dream.wav

Pre-gap length 0:00:01.33

Peak level 92.4 %
Extraction speed 2.4 X
Track quality 100.0 %
Test CRC AEFBA997
Copy CRC AEFBA997
Accurately ripped (confidence 23) [ECDA9FFD] (AR v2)
Copy OK

Track 11

Filename D:\flacs\hold\Bud Powell - The Complete Blue Note and Roost Recordings (1994) [FLAC]\Disc 4\11 Gettin' There.wav

Pre-gap length 0:00:00.97

Peak level 100.0 %
Extraction speed 2.3 X
Track quality 99.9 %
Test CRC 141D30C5
Copy CRC 141D30C5
Accurately ripped (confidence 23) [649BFAAC] (AR v2)
Copy OK

Track 12

Filename D:\flacs\hold\Bud Powell - The Complete Blue Note and Roost Recordings (1994) [FLAC]\Disc 4\12 Crossin' The Channel.wav

Pre-gap length 0:00:00.70

Peak level 100.0 %
Extraction speed 2.2 X
Track quality 99.9 %
Test CRC 5082BB1F
Copy CRC 5082BB1F
Accurately ripped (confidence 22) [07A0A503] (AR v2)
Copy OK

Track 13

Filename D:\flacs\hold\Bud Powell - The Complete Blue Note and Roost Recordings (1994) [FLAC]\Disc 4\13 Danceland.wav

Pre-gap length 0:00:01.02

Peak level 98.2 %
Extraction speed 2.6 X
Track quality 100.0 %
Test CRC D2767BBC
Copy CRC D2767BBC
Accurately ripped (confidence 22) [25C0A125] (AR v2)
Copy OK

Track 14

Filename D:\flacs\hold\Bud Powell - The Complete Blue Note and Roost Recordings (1994) [FLAC]\Disc 4\14 Borderick.wav

Pre-gap length 0:00:01.40

Peak level 91.9 %
Extraction speed 2.3 X
Track quality 100.0 %
Test CRC 5F42C327
Copy CRC 5F42C327
Accurately ripped (confidence 22) [6451C2B0] (AR v2)
Copy OK

Track 15

Filename D:\flacs\hold\Bud Powell - The Complete Blue Note and Roost Recordings (1994) [FLAC]\Disc 4\15 Like Someone In Love.wav

Pre-gap length 0:00:01.66

Peak level 92.3 %
Extraction speed 2.9 X
Track quality 100.0 %
Test CRC E8CDD867
Copy CRC E8CDD867
Accurately ripped (confidence 23) [9B7C4940] (AR v2)
Copy OK


All tracks accurately ripped

No errors occurred

End of status report

–– CUETools DB Plugin V2.1.6

[CTDB TOCID: o1RKxXTuevhUQD7bHKxQ1dHl2X8-] found
Submit result: o1RKxXTuevhUQD7bHKxQ1dHl2X8- has been confirmed
Track | CTDB Status
1 | (21/21) Accurately ripped
2 | (21/21) Accurately ripped
3 | (21/21) Accurately ripped
4 | (20/21) Accurately ripped
5 | (21/21) Accurately ripped
6 | (21/21) Accurately ripped
7 | (21/21) Accurately ripped
8 | (21/21) Accurately ripped
9 | (21/21) Accurately ripped
10 | (21/21) Accurately ripped
11 | (21/21) Accurately ripped
12 | (21/21) Accurately ripped
13 | (21/21) Accurately ripped
14 | (21/21) Accurately ripped
15 | (21/21) Accurately ripped


==== Log checksum D1DDF42A8F7401089F1896D3C955623D72F9BF6D17CF1E8A5492C73FFB83F0DF ====

Bud Powell - The Complete Blue Note And Roost Recordings (1994) [4CDs] {Blue Note}


Thanks to the original ripper