Subcategories

Bud Shank - Bud Shank Quartet Featuring Claude Williamson (1957) [Reissue 2007]

Posted By: gribovar
Bud Shank - Bud Shank Quartet Featuring Claude Williamson (1957) [Reissue 2007]

Bud Shank - Bud Shank Quartet Featuring Claude Williamson (1957) [Reissue 2007]
EAC Rip | FLAC (tracks+.cue+log) - 154 MB | MP3 CBR 320 kbps (LAME 3.93) - 107 MB | Covers (8 MB) included
Genre: Jazz | RAR 3% Rec. | Label: Toshiba-EMI (TOCJ-6375)

Bud Shank Quartet Featuring Claude Williamson is an album by Bud Shank recorded in late 1956 for the Pacific Jazz label.
Bud Shank began his career pigeonholed as a cool schooler, but those who listened to the altoist progress over the long haul knew that he became one of the hottest, most original players of the immediate post-Parker generation. Lumped in with the limpid-toned West Coast crowd in the '50s, Shank never ceased to evolve; in his later years, he had more in common with Jackie McLean or Phil Woods than with Paul Desmond or Lee Konitz. Shank's keening, blithely melodic, and tonally expressive style was one of the more genuinely distinctive approaches that grew out of the bebop idiom.
Shank attended the University of North Carolina from 1944-1946. Early on, he played a variety of woodwinds, including flute, clarinet, and alto and tenor saxes; he began to concentrate on alto and flute in the late '40s. After college, Shank moved to California, where he studied with trumpeter/composer Shorty Rogers and played in the big bands of Charlie Barnet (1947-1948) and Stan Kenton (1950-1951). Shank made a name for himself in the '50s as a central member of the West Coast jazz scene. In addition to those named above, he played and recorded with bassist Howard Rumsey's Lighthouse All-Stars, tenor saxophonist Bob Cooper, and Brazilian guitarist Laurindo Almeida, among others. Shank made a series of albums as a leader for World Pacific in the late '50s and early '60s.
Shank ensconced himself in the L.A. studios during the '60s, emerging occasionally to record jazz and bossa nova albums with the likes of Chet Baker and Sergio Mendes. Shank's 1966 album with Baker, Michelle, was something of a popular success, reaching number 56 on the charts. Film scores on which Shank can be heard include The Thomas Crown Affair and The Barefoot Adventure. In the '70s, Shank formed the L.A. Four with Almeida, bassist Ray Brown, and, at various times, drummer Chuck Flores, Shelly Manne, or Jeff Hamilton. Shank had been one of the earliest jazz flutists, but in the mid-'80s he dropped the instrument in order to concentrate on alto full-time. During the last two decades of the 20th century, he recorded small-group albums at a modestly steady pace for the Contemporary, Concord, and Candid labels. Shank's 1997 Milestone album, By Request: Bud Shank Meets the Rhythm Section, presented the altoist in top form, burning down the house with a band of relative youngsters who included neo-bopper pianist Cyrus Chestnut. Three years later, Silver Storm was released.
Shank continued performing and recording after the turn of the millennium, undertaking the challenging task of forming the Los Angeles-based Bud Shank Big Band in 2005 and making his recording debut as a big-band leader with Taking the Long Way Home, released the following year by the Jazzed Media label. In 2007 Jazzed Media issued Beyond the Red Door, a duet recording by Shank and pianist Bill Mays. Shank's passion for jazz remained strong to the very last days of his life; he died at his home in Tucson, AZ on April 2, 2009 of a pulmonary embolism shortly after returning from a recording session in San Diego. Shank's doctors had reportedly warned the saxophonist - who had moved to Tucson for health reasons - that playing the session could be life-threatening. Bud Shank was 82 years old.
Tracklist:
01. A Night in Tunisia
02. Tertia
03. All of You
04. Theme
05. Jive at Five
06. Softly, as in a Morning Sunrise
07. Polka Dots and Moonbeams
08. Pavane

Total time: 42:14

Exact Audio Copy V1.0 beta 3 from 29. August 2011

EAC extraction logfile from 26. July 2012, 17:17

Bud Shank / The Bud Shank Quartet

Used drive : PLEXTOR CD-R PX-W2410A Adapter: 2 ID: 0

Read mode : Secure
Utilize accurate stream : Yes
Defeat audio cache : Yes
Make use of C2 pointers : No

Read offset correction : 98
Overread into Lead-In and Lead-Out : No
Fill up missing offset samples with silence : Yes
Delete leading and trailing silent blocks : No
Null samples used in CRC calculations : Yes
Used interface : Native Win32 interface for Win NT & 2000
Gap handling : Appended to previous track

Used output format : User Defined Encoder
Selected bitrate : 1024 kBit/s
Quality : High
Add ID3 tag : No
Command line compressor : C:\Program Files\Exact Audio Copy\FLAC\FLAC.EXE
Additional command line options : -8 -V -T "ARTIST=%artist%" -T "TITLE=%title%" -T "ALBUM=%albumtitle%" -T "DATE=%year%" -T "TRACKNUMBER=%tracknr%" -T "GENRE=%genre%" -T "PERFORMER=%albuminterpret%" -T "COMPOSER=%composer%" %haslyrics%–tag-from-file=LYRICS="%lyricsfile%"%haslyrics% -T "ALBUMARTIST=%albumartist%" -T "DISCNUMBER=%cdnumber%" -T "TOTALDISCS=%totalcds%" -T "TOTALTRACKS=%numtracks%" -T "COMMENT=%comment%" %source%


TOC of the extracted CD

Track | Start | Length | Start sector | End sector
––––––––––––––––––––––––––––-
1 | 0:00.00 | 4:03.04 | 0 | 18228
2 | 4:03.04 | 8:32.31 | 18229 | 56659
3 | 12:35.35 | 6:03.74 | 56660 | 83958
4 | 18:39.34 | 3:55.66 | 83959 | 101649
5 | 22:35.25 | 4:30.48 | 101650 | 121947
6 | 27:05.73 | 5:20.23 | 121948 | 145970
7 | 32:26.21 | 3:39.60 | 145971 | 162455
8 | 36:06.06 | 6:08.29 | 162456 | 190084


Track 1

Filename X:\EAC\Bud Shank - The Bud Shank Quartet (1956 EMI JP 2007) [FLAC]\01. Carioca.wav

Pre-gap length 0:00:02.00

Peak level 96.8 %
Extraction speed 3.6 X
Track quality 100.0 %
Test CRC 86134FBB
Copy CRC 86134FBB
Track not present in AccurateRip database
Copy OK

Track 2

Filename X:\EAC\Bud Shank - The Bud Shank Quartet (1956 EMI JP 2007) [FLAC]\02. All This and Heaven Too.wav

Pre-gap length 0:00:03.00

Peak level 99.8 %
Extraction speed 3.7 X
Track quality 100.0 %
Test CRC A4E77589
Copy CRC A4E77589
Track not present in AccurateRip database
Copy OK

Track 3

Filename X:\EAC\Bud Shank - The Bud Shank Quartet (1956 EMI JP 2007) [FLAC]\03. Jubilation.wav

Pre-gap length 0:00:03.07

Peak level 99.8 %
Extraction speed 3.7 X
Track quality 100.0 %
Test CRC 6064CEBB
Copy CRC 6064CEBB
Track not present in AccurateRip database
Copy OK

Track 4

Filename X:\EAC\Bud Shank - The Bud Shank Quartet (1956 EMI JP 2007) [FLAC]\04. Walkin'.wav

Pre-gap length 0:00:02.52

Peak level 99.8 %
Extraction speed 3.7 X
Track quality 100.0 %
Test CRC 9D078944
Copy CRC 9D078944
Track not present in AccurateRip database
Copy OK

Track 5

Filename X:\EAC\Bud Shank - The Bud Shank Quartet (1956 EMI JP 2007) [FLAC]\05. Nature Boy.wav

Pre-gap length 0:00:02.44

Peak level 99.8 %
Extraction speed 3.7 X
Track quality 100.0 %
Test CRC 9E2AB39F
Copy CRC 9E2AB39F
Track not present in AccurateRip database
Copy OK

Track 6

Filename X:\EAC\Bud Shank - The Bud Shank Quartet (1956 EMI JP 2007) [FLAC]\06. Nocturne for Flute.wav

Pre-gap length 0:00:02.46

Peak level 99.3 %
Extraction speed 3.7 X
Track quality 100.0 %
Test CRC 9AD6A026
Copy CRC 9AD6A026
Track not present in AccurateRip database
Copy OK

Track 7

Filename X:\EAC\Bud Shank - The Bud Shank Quartet (1956 EMI JP 2007) [FLAC]\07. Do Nothin' Till You Hear from Me.wav

Pre-gap length 0:00:02.51

Peak level 96.5 %
Extraction speed 3.6 X
Track quality 100.0 %
Test CRC C4D895B8
Copy CRC C4D895B8
Track not present in AccurateRip database
Copy OK

Track 8

Filename X:\EAC\Bud Shank - The Bud Shank Quartet (1956 EMI JP 2007) [FLAC]\08. Bag of Blues.wav

Pre-gap length 0:00:02.45

Peak level 99.1 %
Extraction speed 3.3 X
Track quality 100.0 %
Test CRC C3D939C7
Copy CRC C3D939C7
Track not present in AccurateRip database
Copy OK


None of the tracks are present in the AccurateRip database

No errors occurred

End of status report

–– CUETools DB Plugin V2.1.3

[CTDB TOCID: obKCLQDRn_6wHyE.4RSIaT7Zl1U-] found, Submit result: obKCLQDRn_6wHyE.4RSIaT7Zl1U- has been confirmed
[a85a7bf5] (2/2) Accurately ripped


==== Log checksum F8A512A191297DD3C6070FFC2194CB25734553F69A66F0EC1A36629117DBEAF0 ====

[CUETools log; Date: 05.07.2018 2:35:46; Version: 2.1.4]
[CTDB TOCID: obKCLQDRn_6wHyE.4RSIaT7Zl1U-] found.
Track | CTDB Status
1 | (7/7) Accurately ripped
2 | (7/7) Accurately ripped
3 | (7/7) Accurately ripped
4 | (7/7) Accurately ripped
5 | (7/7) Accurately ripped
6 | (7/7) Accurately ripped
7 | (7/7) Accurately ripped
8 | (7/7) Accurately ripped
[AccurateRip ID: 000d713e-0058b897-6c09e608] found.
Track [ CRC | V2 ] Status
01 [1e11cacd|adc38a70] (0+4/4) Accurately ripped
02 [6b142882|e7404f52] (0+4/4) Accurately ripped
03 [77ca77fb|a9070151] (0+4/4) Accurately ripped
04 [0960fbfa|46381f4a] (0+4/4) Accurately ripped
05 [1e64e278|5464cf8d] (0+4/4) Accurately ripped
06 [92acf66b|b1c06693] (0+4/4) Accurately ripped
07 [228e71a5|da72ba39] (0+4/4) Accurately ripped
08 [e42147aa|be3c5884] (0+3/3) Accurately ripped

Track Peak [ CRC32 ] [W/O NULL] [ LOG ]
– 99,8 [F2BFDA19] [D767C43C]
01 96,8 [86134FBB] [2F99A8D4] CRC32
02 99,8 [A4E77589] [B006D648] CRC32
03 99,8 [6064CEBB] [5E0E5352] CRC32
04 99,8 [9D078944] [E8E6A166] CRC32
05 99,8 [9E2AB39F] [D6325BC2] CRC32
06 99,3 [9AD6A026] [3ED69019] CRC32
07 96,5 [C4D895B8] [B2EE6B90] CRC32
08 99,1 [C3D939C7] [2752BDDC] CRC32

Thanks to kvolik27

See also:
Bud Shank - Jazz at Cal-Tech (1956) [Reissue 2007]
Bud Shank - Bud Shank Plays Tenor (1960) [Reissue 2007]