Buddy DeFranco And Oscar Peterson - Play George Gershwin (2005) {Reissue, 24-bit/96 kHz Remastering}

Posted By: popsakov
Buddy DeFranco And Oscar Peterson - Play George Gershwin (2005) {Reissue, 24-bit/96 kHz Remastering}

Buddy DeFranco And Oscar Peterson - Play George Gershwin (2005) {Reissue, 24-bit/96 kHz Remastering}
EAC Rip | FLAC (Img) + Cue + Log ~ 128 Mb | MP3 CBR320 ~ 100 Mb
Scans (JPG, 600 dpi) ~ 165 Mb | RAR 5% Recovery
Jazz | Membran Music #222975-203 / OLP #10

Most musicians when asked to give a list of their favorite composers will usually have at the top, or near the top of the list George Gershwin. They feel that Gershwin wrote in such a fashion that it gives them the most room for improvisation. You will always find that when people are asked to do albums of various composers, invariably Gershwin is on the list. (Singers, of course, are different, since they must consider lyrics as well as melody, but instrumentally, Gershwin is the boy for most musicians.)

Buddy DeFranco has recorded many albums for me and for two years has been insisting that he be allowed to do a Gershwin album, and this is it. After completing a tour with Jazz At The Philharmonic, Buddy had an opportunity to play with and listen to Oscar Peterson every night for several weeks and he insisted besides that Oscar Peterson be included in this album.

In this album, then, Buddy DeFranco and Oscar Peterson play Gershwin,
with their jazz approach. Skip Martin arranged “I Got Rhythm”, “I Was Doing All Right” and “The Man I Love”, and the arrangements by Russ Garcia were “lt Ain’t Necessarily So”, “Bess”, “Someone to Watch Over Me”, “‘S Wonderful”, “Strike Up The Band”, “Porgy”, and “They Can’t Take That Away From Me”.

NORMAN GRANZ

***************

Buddy DeFranco And Oscar Peterson - Play George Gershwin (2005) {Reissue, 24-bit/96 kHz Remastering}

Track List:

01. Porgy [0:03:48.08]
02. I Was Doing All Right [0:05:24.58]
03. S Wonderful [0:04:24.40]
04. Bess, You Is My Woman Now [0:04:57.14]
05. Strike Up The Band [0:02:29.50]
06. They Can't Take That Away From Me [0:03:52.08]
07. The Man I Love [0:04:36.04]
08. I Got Rhythm [0:03:20.59]
09. Someone To Watch Over Me [0:04:22.41]
10. It Ain't Necessarily So [0:04:11.16]

Personnel:
Buddy DeFranco - clarinet
Oscar Peterson – piano
Ray Brown – double bass
Herb Ellis - guitar
Bobby White - drums

Exact Audio Copy V1.0 beta 3 from 29. August 2011

EAC extraction logfile from 19. November 2013, 19:23

Buddy DeFranco And Oscar Peterson / Play George Gershwin

Used drive : ATAPI iHAS124 D Adapter: 0 ID: 2

Read mode : Secure
Utilize accurate stream : Yes
Defeat audio cache : Yes
Make use of C2 pointers : No

Read offset correction : 6
Overread into Lead-In and Lead-Out : No
Fill up missing offset samples with silence : Yes
Delete leading and trailing silent blocks : No
Null samples used in CRC calculations : Yes
Used interface : Installed external ASPI interface

Used output format : User Defined Encoder
Selected bitrate : 1024 kBit/s
Quality : High
Add ID3 tag : No
Command line compressor : C:\Program Files (x86)\Exact Audio Copy\Flac\flac.exe
Additional command line options : -6 -V -T "ARTIST=%artist%" -T "TITLE=%title%" -T "ALBUM=%albumtitle%" -T "DATE=%year%" -T "TRACKNUMBER=%tracknr%" -T "GENRE=%genre%" -T "COMMENT=%comment%" -T "BAND=%albuminterpret%" -T "COMPOSER=%composer%" %haslyrics%–tag-from-file=LYRICS="%lyricsfile%"%haslyrics% -T "DISCNUMBER=%cdnumber%" -T "TOTALDISCS=%totalcds%" -T "TOTALTRACKS=%numtracks%" %hascover%–picture="%coverfile%"%hascover% %source% -o %dest%


TOC of the extracted CD

Track | Start | Length | Start sector | End sector
––––––––––––––––––––––––––––-
1 | 0:00.00 | 3:48.08 | 0 | 17107
2 | 3:48.08 | 5:24.58 | 17108 | 41465
3 | 9:12.66 | 4:24.40 | 41466 | 61305
4 | 13:37.31 | 4:57.14 | 61306 | 83594
5 | 18:34.45 | 2:29.50 | 83595 | 94819
6 | 21:04.20 | 3:52.08 | 94820 | 112227
7 | 24:56.28 | 4:36.04 | 112228 | 132931
8 | 29:32.32 | 3:20.59 | 132932 | 147990
9 | 32:53.16 | 4:22.41 | 147991 | 167681
10 | 37:15.57 | 4:11.16 | 167682 | 186522


Range status and errors

Selected range

Filename C:\mm\Oscar Peterson\2005 - Buddy DeFranco And Oscar Peterson - Play George Gershwin\Buddy DeFranco And Oscar Peterson - Play George Gershwin.wav

Peak level 78.3 %
Extraction speed 8.5 X
Range quality 100.0 %
Test CRC D8643AC9
Copy CRC D8643AC9
Copy OK

No errors occurred


AccurateRip summary

Track 1 accurately ripped (confidence 4) [70C00979] (AR v2)
Track 2 accurately ripped (confidence 4) [47B161A8] (AR v2)
Track 3 accurately ripped (confidence 4) [0DDA7652] (AR v2)
Track 4 accurately ripped (confidence 4) [F750F8A7] (AR v2)
Track 5 accurately ripped (confidence 4) [7EC5846D] (AR v2)
Track 6 accurately ripped (confidence 4) [09DC0BD2] (AR v2)
Track 7 accurately ripped (confidence 4) [80B1E20E] (AR v2)
Track 8 accurately ripped (confidence 4) [19E612AC] (AR v2)
Track 9 accurately ripped (confidence 4) [02310F62] (AR v2)
Track 10 accurately ripped (confidence 4) [D972D5C7] (AR v2)

All tracks accurately ripped

End of status report

–– CUETools DB Plugin V2.1.3

[CTDB TOCID: o4vFMFMX8aHQsOsEENhNvgMHNVQ-] found, Submit result: o4vFMFMX8aHQsOsEENhNvgMHNVQ- has been confirmed
[cb948636] (3/3) Accurately ripped

foobar2000 1.2.6 / Dynamic Range Meter 1.1.1
log date: 2017-01-21 01:49:15

––––––––––––––––––––––––––––––––––––––––
Analyzed: Buddy DeFranco And Oscar Peterson / Play George Gershwin
––––––––––––––––––––––––––––––––––––––––

DR Peak RMS Duration Track
––––––––––––––––––––––––––––––––––––––––
DR14 -3.78 dB -22.53 dB 3:48 01-Porgy
DR15 -4.10 dB -22.38 dB 5:25 02-I Was Doing All Right
DR16 -3.37 dB -23.15 dB 4:25 03-S Wonderful
DR12 -5.59 dB -22.90 dB 4:57 04-Bess, You Is My Woman Now
DR14 -5.17 dB -22.31 dB 2:30 05-Strike Up The Band
DR15 -4.96 dB -22.96 dB 3:52 06-They Can't Take That Away From Me
DR16 -2.49 dB -22.49 dB 4:36 07-The Man I Love
DR15 -4.24 dB -21.02 dB 3:21 08-I Got Rhythm
DR15 -3.55 dB -23.69 dB 4:23 09-Someone To Watch Over Me
DR15 -2.12 dB -20.87 dB 4:11 10-It Ain't Necessarily So
––––––––––––––––––––––––––––––––––––––––

Number of tracks: 10
Official DR value: DR15

Samplerate: 44100 Hz
Channels: 2
Bits per sample: 16
Bitrate: 413 kbps
Codec: FLAC
================================================================================

[CUETools log; Date: 21.01.2017 1:49:50; Version: 2.1.5]
[CTDB TOCID: o4vFMFMX8aHQsOsEENhNvgMHNVQ-] found.
Track | CTDB Status
1 | ( 5/12) Accurately ripped
2 | ( 5/12) Accurately ripped
3 | ( 5/12) Accurately ripped
4 | ( 5/12) Accurately ripped
5 | ( 5/12) Accurately ripped
6 | ( 5/12) Accurately ripped
7 | ( 5/12) Accurately ripped
8 | ( 5/12) Accurately ripped
9 | ( 5/12) Accurately ripped
10 | ( 5/12) Accurately ripped
[AccurateRip ID: 000ff493-007ea6f6-8c09b60a] found.
Track [ CRC | V2 ] Status
01 [9a0618c9|70c00979] (02+07/11) Accurately ripped
02 [2d045886|47b161a8] (02+07/11) Accurately ripped
03 [9a97fda0|0dda7652] (02+07/11) Accurately ripped
04 [3490c7ce|f750f8a7] (02+07/11) Accurately ripped
05 [203f585b|7ec5846d] (02+07/11) Accurately ripped
06 [2a95be01|09dc0bd2] (02+07/11) Accurately ripped
07 [73635738|80b1e20e] (02+07/11) Accurately ripped
08 [dce7063c|19e612ac] (02+07/11) Accurately ripped
09 [002c30e1|02310f62] (02+07/11) Accurately ripped
10 [f47d1a9d|d972d5c7] (02+07/09) Accurately ripped

Track Peak [ CRC32 ] [W/O NULL] [ LOG ]
– 78,3 [D8643AC9] [3257F474] CRC32
01 64,6 [FCF2EF5A] [72ADDB93]
02 62,3 [5CAE3213] [B6EBB067]
03 67,8 [A15F6645] [0F1BE105]
04 52,5 [181D9D61] [D6F744D1]
05 55,1 [25C0F596] [20FCA5ED]
06 56,4 [8650A1C7] [78CE0DA3]
07 75,0 [1E291F7A] [451DCD5E]
08 61,4 [FD8BE5A9] [51A10871]
09 66,4 [76F3E2E7] [6D5F68EC]
10 78,3 [F6D57ACE] [4E2D1BF3]

Buddy DeFranco And Oscar Peterson - Play George Gershwin (2005) {Reissue, 24-bit/96 kHz Remastering}

Buddy DeFranco And Oscar Peterson - Play George Gershwin (2005) {Reissue, 24-bit/96 kHz Remastering}

All thanks go to sergych

> Oscar Peterson in my blog <