Subcategories

Buddy DeFranco And The Oscar Peterson Quartet (2005) {Reissue, 24-bit/96 kHz Remastering}

Posted By: popsakov
Buddy DeFranco And The Oscar Peterson Quartet (2005) {Reissue, 24-bit/96 kHz Remastering}

Buddy DeFranco And The Oscar Peterson Quartet (2005) {Reissue, 24-bit/96 kHz Remastering}
EAC Rip | FLAC (Tracks) + Cue + Log + m3u ~ 174 Mb | MP3 CBR320 ~ 145 Mb
Scans Included (JPG, 600 dpi) | RAR 5% Recovery
Jazz | Membran Music #222969-203 / OLP #4

The first six selections on this CD are from a long-out-of-print LP featuring the brilliant clarinetist Buddy DeFranco with the Oscar Peterson Quartet (Peterson's trio plus drummer Louie Bellson). While the six selections are all standards, DeFranco and Peterson produce plenty of fireworks with the majority of the numbers being taken up-tempo. DeFranco sounds flawless on clarinet, making it sound so easy to play lightning-fast runs; few other clarinetists have ever come close. Recommended.
~ Scott Yanow, All Music

***************

Buddy DeFranco And The Oscar Peterson Quartet (2005) {Reissue, 24-bit/96 kHz Remastering}

Track List:

01. Sweet And Lovely [0:07:06.37]
02. Fascinatin' Rhythm [0:04:54.45]
03. Love For Sale [0:09:30.63]
04. Easy to Love [0:04:58.40]
05. Pick Yourself Up [0:11:26.39]
06. They Can't Take That Away From Me [0:06:05.30]

Personnel:
Bass – Ray Brown
Drums – Louis Bellson
Guitar – Herb Ellis
Piano – Oscar Peterson
Clarinet – Buddy De Franco

Exact Audio Copy V1.0 beta 3 from 29. August 2011

EAC extraction logfile from 15. March 2013, 15:53

Buddy DeFranco / Buddy DeFranco and the Oscar Peterson Quartet

Used drive : Optiarc DVD RW AD-5170A Adapter: 0 ID: 1

Read mode : Secure
Utilize accurate stream : Yes
Defeat audio cache : Yes
Make use of C2 pointers : Yes

Read offset correction : 48
Overread into Lead-In and Lead-Out : No
Fill up missing offset samples with silence : Yes
Delete leading and trailing silent blocks : No
Null samples used in CRC calculations : Yes
Used interface : Installed external ASPI interface
Gap handling : Appended to previous track

Used output format : User Defined Encoder
Selected bitrate : 896 kBit/s
Quality : High
Add ID3 tag : No
Command line compressor : C:\MMProgram\Exact Audio Copy\FLAC\FLAC.EXE
Additional command line options : -6 -V -T "ARTIST=%artist%" -T "TITLE=%title%" -T "ALBUM=%albumtitle%" -T "DATE=%year%" -T "TRACKNUMBER=%tracknr%" -T "GENRE=%genre%" -T "COMMENT=%comment%" -T "BAND=%albuminterpret%" -T "ALBUMARTIST=%albuminterpret%" -T "COMPOSER=%composer%" %haslyrics%–tag-from-file=LYRICS="%lyricsfile%"%haslyrics% -T "DISCNUMBER=%cdnumber%" -T "TOTALDISCS=%totalcds%" -T "TOTALTRACKS=%numtracks%" %hascover%–picture="%coverfile%"%hascover% %source% -o %dest%


TOC of the extracted CD

Track | Start | Length | Start sector | End sector
––––––––––––––––––––––––––––-
1 | 0:00.00 | 7:06.37 | 0 | 31986
2 | 7:06.37 | 4:54.45 | 31987 | 54081
3 | 12:01.07 | 9:30.63 | 54082 | 96894
4 | 21:31.70 | 4:58.40 | 96895 | 119284
5 | 26:30.35 | 11:26.39 | 119285 | 170773
6 | 37:56.74 | 6:05.30 | 170774 | 198178


Track 1

Filename C:\mm\Oscar Peterson\2005 - Buddy DeFranco And The Oscar Peterson Quartet\01 - Sweet And Lovely.wav

Pre-gap length 0:00:02.00

Peak level 89.2 %
Extraction speed 1.6 X
Track quality 100.0 %
Test CRC C1147E9E
Copy CRC C1147E9E
Accurately ripped (confidence 4) [7E3E639D] (AR v1)
Copy OK

Track 2

Filename C:\mm\Oscar Peterson\2005 - Buddy DeFranco And The Oscar Peterson Quartet\02 - Fascinatin' Rhythm.wav

Pre-gap length 0:00:02.00

Peak level 75.8 %
Extraction speed 1.5 X
Track quality 100.0 %
Test CRC D91D5E06
Copy CRC D91D5E06
Accurately ripped (confidence 4) [CE2A0F3B] (AR v1)
Copy OK

Track 3

Filename C:\mm\Oscar Peterson\2005 - Buddy DeFranco And The Oscar Peterson Quartet\03 - Love For Sale.wav

Pre-gap length 0:00:01.43

Peak level 75.4 %
Extraction speed 1.6 X
Track quality 100.0 %
Test CRC B48E4BD7
Copy CRC B48E4BD7
Accurately ripped (confidence 4) [BBB23580] (AR v1)
Copy OK

Track 4

Filename C:\mm\Oscar Peterson\2005 - Buddy DeFranco And The Oscar Peterson Quartet\04 - Easy to Love.wav

Pre-gap length 0:00:01.39

Peak level 79.4 %
Extraction speed 1.5 X
Track quality 100.0 %
Test CRC 586A054F
Copy CRC 586A054F
Accurately ripped (confidence 4) [177D194C] (AR v1)
Copy OK

Track 5

Filename C:\mm\Oscar Peterson\2005 - Buddy DeFranco And The Oscar Peterson Quartet\05 - Pick Yourself Up.wav

Pre-gap length 0:00:01.23

Peak level 68.6 %
Extraction speed 1.6 X
Track quality 100.0 %
Test CRC 62D7935B
Copy CRC 62D7935B
Accurately ripped (confidence 4) [A5DB812F] (AR v1)
Copy OK

Track 6

Filename C:\mm\Oscar Peterson\2005 - Buddy DeFranco And The Oscar Peterson Quartet\06 - They Can't Take That Away From Me.wav

Pre-gap length 0:00:01.03

Peak level 65.4 %
Extraction speed 1.5 X
Track quality 100.0 %
Test CRC BD2F1A6E
Copy CRC BD2F1A6E
Accurately ripped (confidence 4) [FB4E1EA2] (AR v1)
Copy OK


All tracks accurately ripped

No errors occurred

End of status report

–– CUETools DB Plugin V2.1.3

[CTDB TOCID: wgCgmem57D2kHwbJ5Lr_mf4SOC4-] found
[027a9ec4] (4/4) Accurately ripped

foobar2000 1.2.6 / Dynamic Range Meter 1.1.1
log date: 2017-01-21 00:01:24

––––––––––––––––––––––––––––––––––––––––
Analyzed: Buddy DeFranco / Buddy DeFranco and the Oscar Peterson Quartet
––––––––––––––––––––––––––––––––––––––––

DR Peak RMS Duration Track
––––––––––––––––––––––––––––––––––––––––
DR12 -0.99 dB -17.63 dB 7:06 01-Sweet And Lovely
DR13 -2.41 dB -16.75 dB 4:55 02-Fascinatin' Rhythm
DR14 -2.45 dB -18.40 dB 9:31 03-Love For Sale
DR14 -2.00 dB -19.08 dB 4:59 04-Easy to Love
DR13 -3.27 dB -18.37 dB 11:27 05-Pick Yourself Up
DR12 -3.68 dB -17.77 dB 6:05 06-They Can't Take That Away From Me
––––––––––––––––––––––––––––––––––––––––

Number of tracks: 6
Official DR value: DR13

Samplerate: 44100 Hz
Channels: 2
Bits per sample: 16
Bitrate: 355 kbps
Codec: FLAC
================================================================================

[CUETools log; Date: 21.01.2017 0:07:35; Version: 2.1.5]
[CTDB TOCID: wgCgmem57D2kHwbJ5Lr_mf4SOC4-] found.
Track | CTDB Status
1 | ( 4/10) Accurately ripped
2 | ( 4/10) Accurately ripped
3 | ( 4/10) Accurately ripped
4 | ( 4/10) Accurately ripped
5 | ( 4/10) Accurately ripped
6 | ( 4/10) Accurately ripped
[AccurateRip ID: 000a3de2-003744eb-4f0a5206] found.
Track [ CRC | V2 ] Status
01 [7e3e639d|5c8afe66] (04+05/11) Accurately ripped
02 [ce2a0f3b|000f568c] (04+05/11) Accurately ripped
03 [bbb23580|0282d560] (04+05/11) Accurately ripped
04 [177d194c|58563b50] (04+05/11) Accurately ripped
05 [a5db812f|b14ac442] (04+05/11) Accurately ripped
06 [fb4e1ea2|179a4b9d] (04+05/09) Accurately ripped

Track Peak [ CRC32 ] [W/O NULL] [ LOG ]
– 89,2 [E4D58828] [5E86D03F]
01 89,2 [C1147E9E] [D8C9BDF9] CRC32
02 75,8 [D91D5E06] [B2753DDB] CRC32
03 75,4 [B48E4BD7] [7A65007E] CRC32
04 79,4 [586A054F] [98638CEE] CRC32
05 68,6 [62D7935B] [12CD412A] CRC32
06 65,4 [BD2F1A6E] [2E52DA23] CRC32

Buddy DeFranco And The Oscar Peterson Quartet (2005) {Reissue, 24-bit/96 kHz Remastering}

Buddy DeFranco And The Oscar Peterson Quartet (2005) {Reissue, 24-bit/96 kHz Remastering}

All thanks go to sergych

> Oscar Peterson in my blog <