Subcategories

Buddy Guy & Junior Wells - Play The Blues (1972) {2012, Reissue, Remastered}

Posted By: popsakov
Buddy Guy & Junior Wells - Play The Blues (1972) {2012, Reissue, Remastered}

Buddy Guy & Junior Wells - Play The Blues (1972) {2012, Reissue, Remastered}
EAC Rip | FLAC (Img) + Cue + Log ~ 248 Mb | MP3 CBR320 ~ 90 Mb
Scans (JPG, 600 dpi) ~ 28 Mb | RAR 5% Recovery
Chicago Blues | ATCO Records / Rhino / Warner Music #8122-79704-8 / WPCR-27526

Limited pressing housed in Japanese mini LP sleeve packaging with obi strip. Digitally remastered edition of this classic '60s Soul release. For years, Motown was always referred to as the most influential Soul label of the '60s. However, one cursory glance at Atlantic's vast catalog of '60s Soul releases proves that Atlantic may have had the edge in regards to it's roster of influential talent. This remaster is just one in a series of Japanese Atlantic Soul and R&B reissues that comes housed in a min LP sleeve, which replicates the excitement of opening the album back when it first came out!

***************

Buddy Guy & Junior Wells - Play The Blues (1972) {2012, Reissue, Remastered}

Track List:

01. A Man Of Many Words [04:03]
02. My Baby She Left Me (She Left Me A Mule To Ride) [03:12]
03. a. Come On In This House b. Have Mercy Baby [04:24]
04. T-Bone Shuffle [04:20]
05. A Poor Man's Plea [03:14]
06. Messin' With The Kid [02:16]
07. This Old Fool [03:11]
08. I Don't Know [04:31]
09. Bad Bad Whiskey [04:16]
10. Honeydripper [03:51]

Personnel:

Buddy Guy - vocals, guitar
Junior Wells - vocals, harmonica
J. Geils - guitar
Eric Clapton - guitar, bottleneck guitar
Magic Dick - harmonica
A.C. Reed - tenor saxophone
Dr. John, Mike Utley, Seth Justman - piano
Carl Radle, Leroy Stewart, Danny Klein - bass
Roosevelt Shaw, Jim Gordon, Stephen Bladd - drums

Exact Audio Copy V0.99 prebeta 5 from 4. May 2009

EAC extraction logfile from 29. July 2016, 9:41

Buddy Guy & Junior Wells / Play The Blues (JP 2012 WPCR-27526)

Used drive : ATAPI iHAS122 C Adapter: 1 ID: 1

Read mode : Secure
Utilize accurate stream : Yes
Defeat audio cache : Yes
Make use of C2 pointers : No

Read offset correction : 6
Overread into Lead-In and Lead-Out : No
Fill up missing offset samples with silence : Yes
Delete leading and trailing silent blocks : No
Null samples used in CRC calculations : Yes
Used interface : Native Win32 interface for Win NT & 2000

Used output format : Internal WAV Routines
Sample format : 44.100 Hz; 16 Bit; Stereo


TOC of the extracted CD

Track | Start | Length | Start sector | End sector
––––––––––––––––––––––––––––-
1 | 0:00.00 | 4:02.07 | 0 | 18156
2 | 4:02.07 | 3:11.25 | 18157 | 32506
3 | 7:13.32 | 4:23.38 | 32507 | 52269
4 | 11:36.70 | 4:19.25 | 52270 | 71719
5 | 15:56.20 | 3:13.15 | 71720 | 86209
6 | 19:09.35 | 2:15.65 | 86210 | 96399
7 | 21:25.25 | 3:10.72 | 96400 | 110721
8 | 24:36.22 | 4:30.28 | 110722 | 130999
9 | 29:06.50 | 4:15.05 | 131000 | 150129
10 | 33:21.55 | 3:50.32 | 150130 | 167411


Range status and errors

Selected range

Filename C:\Users\Arturs\Desktop\Buddy Guy & Junior Wells - Play The Blues (JP 2012 WPCR-27526).wav

Peak level 100.0 %
Range quality 100.0 %
Test CRC 20B6F41B
Copy CRC 20B6F41B
Copy OK

No errors occurred


AccurateRip summary

Track 1 cannot be verified as accurate (confidence 9) [B81F4597], AccurateRip returned [443061F4]
Track 2 cannot be verified as accurate (confidence 9) [E85C053D], AccurateRip returned [BF53A21A]
Track 3 cannot be verified as accurate (confidence 9) [FA280232], AccurateRip returned [CB8C566A]
Track 4 cannot be verified as accurate (confidence 9) [2A5FB0E3], AccurateRip returned [8B53B40D]
Track 5 cannot be verified as accurate (confidence 9) [DFE2A5C9], AccurateRip returned [4E3B6F9C]
Track 6 cannot be verified as accurate (confidence 9) [D708AB53], AccurateRip returned [4651824B]
Track 7 cannot be verified as accurate (confidence 9) [0C18A1A9], AccurateRip returned [9D46C6C8]
Track 8 cannot be verified as accurate (confidence 9) [1B89F042], AccurateRip returned [BEC13A8F]
Track 9 cannot be verified as accurate (confidence 9) [D6E25DBF], AccurateRip returned [412C4D34]
Track 10 cannot be verified as accurate (confidence 9) [4B42C874], AccurateRip returned [A82D4F4B]

No tracks could be verified as accurate
You may have a different pressing from the one(s) in the database

End of status report

foobar2000 1.2.6 / Dynamic Range Meter 1.1.1
log date: 2016-07-29 20:52:21

––––––––––––––––––––––––––––––––––––––––
Analyzed: Buddy Guy & Junior Wells / Play The Blues (JP 2012 WPCR-27526)
––––––––––––––––––––––––––––––––––––––––

DR Peak RMS Duration Track
––––––––––––––––––––––––––––––––––––––––
DR7 0.00 dB -8.12 dB 4:02 01-A Man Of Many Words
DR8 0.00 dB -9.70 dB 3:11 02-My Baby She Left Me (She Left Me A Mule To Ride)
DR9 0.00 dB -10.99 dB 4:24 03-a. Come On In This House b. Have Mercy Baby
DR7 0.00 dB -9.44 dB 4:19 04-T-Bone Shuffle
DR7 0.00 dB -8.71 dB 3:13 05-A Poor Man's Plea
DR7 0.00 dB -8.31 dB 2:16 06-Messin' With The Kid
DR8 0.00 dB -9.92 dB 3:11 07-This Old Fool
DR9 0.00 dB -10.93 dB 4:30 08-I Don't Know
DR9 0.00 dB -11.12 dB 4:15 09-Bad Bad Whiskey
DR13 0.00 dB -14.56 dB 3:50 10-Honeydripper
––––––––––––––––––––––––––––––––––––––––

Number of tracks: 10
Official DR value: DR8

Samplerate: 44100 Hz
Channels: 2
Bits per sample: 16
Bitrate: 886 kbps
Codec: FLAC
================================================================================

[CUETools log; Date: 29.07.2016 20:52:20; Version: 2.1.5]
[CTDB TOCID: u7x4BRdE4F7MWAL_ySwJbnJxxQk-] found.
Track | CTDB Status
1 | (13/14) Accurately ripped
2 | (13/14) Accurately ripped
3 | (13/14) Accurately ripped
4 | (13/14) Accurately ripped
5 | (13/14) Accurately ripped
6 | (13/14) Accurately ripped
7 | (13/14) Accurately ripped
8 | (13/14) Accurately ripped
9 | (13/14) Accurately ripped
10 | (13/14) Accurately ripped
[AccurateRip ID: 000dfc30-006f6840-8c08b80a] found.
Track [ CRC | V2 ] Status
01 [b81f4597|443061f4] (0+9/9) Accurately ripped
02 [e85c053d|bf53a21a] (0+9/9) Accurately ripped
03 [fa280232|cb8c566a] (0+9/9) Accurately ripped
04 [2a5fb0e3|8b53b40d] (0+9/9) Accurately ripped
05 [dfe2a5c9|4e3b6f9c] (0+9/9) Accurately ripped
06 [d708ab53|4651824b] (0+9/9) Accurately ripped
07 [0c18a1a9|9d46c6c8] (0+9/9) Accurately ripped
08 [1b89f042|bec13a8f] (0+9/9) Accurately ripped
09 [d6e25dbf|412c4d34] (0+9/9) Accurately ripped
10 [4b42c874|a82d4f4b] (0+9/9) Accurately ripped

Track Peak [ CRC32 ] [W/O NULL] [ LOG ]
– 100,0 [20B6F41B] [BEF318B9] CRC32
01 100,0 [AFD17D5D] [C2A6E998]
02 100,0 [F1AF8AD5] [1422C186]
03 100,0 [67844404] [B4F64278]
04 100,0 [BE9662CE] [C5CC26E5]
05 100,0 [E56DECD8] [D0D0E3F3]
06 100,0 [B784EA07] [1649F464]
07 100,0 [C5FC34F3] [16A1E065]
08 100,0 [833C4ED0] [6DC2DA82]
09 100,0 [B8166813] [8E6C4B98]
10 100,0 [3B4F5734] [D6616B40]

Buddy Guy & Junior Wells - Play The Blues (1972) {2012, Reissue, Remastered}

Buddy Guy & Junior Wells - Play The Blues (1972) {2012, Reissue, Remastered}

See also:
Buddy Guy - Born To Play Guitar (2015)
Buddy Guy - Front And Center (2013) [HDTV 1080i]

All thanks go to London

Visit my blog!

Download: