Subcategories

Buddy Guy & Junior Wells - Alone & Acoustic (1981's Going Back album reissue) (1991)

Posted By: uff
Buddy Guy & Junior Wells - Alone & Acoustic (1981's Going Back album reissue) (1991)

Buddy Guy & Junior Wells - Alone & Acoustic (1981's Going Back album reissue) (1991)
Blues | 1cd | EAC Rip | Flac + Cue + Log | covers
Alligator ALCD 4802 | rel: 1991 | 370Mb

The classic pairing of Buddy Guy and Junior Wells has been captured many times on vinyl, cassette, and disc over the years, but rarely with such intimacy and subtle, restrained energy as on this wonderful collection. Buddy Guy plays mostly 12 string guitar, and Junior laces his signature lines through the songs, engaging Guy in the kind of musical dialogue that only old friends can have. This is acoustic street-corner blues at its best, performed with incredible expressiveness, ease, and joy. One gets the feeling these two are just sitting down for a friendly jam session on a Saturday afternoon, and when things get loose, their laughter flows almost as freely as the music. Guy really shines on some of these tracks, his guitar lines fast, smooth, percussive, and seemingly effortless. Wells, always tasteful, plays counterpoint to Guy in the classic style and sings with honesty and conviction. What resulted is some absolutely fantastic music. ~Allmusic

Track listing
(1981's Going Back plus 5 more songs from the sessions)
01. Give Me My Coat And Shoes (3:49)
02. Big Boat (Buddy And Junior's Thing) (5:13)
03. Sweet Black Girl (3:32)
04. Diggin' My Potatoes (4:28)
05. Don't Leave Me (3:43)
06. Rollin' And Tumblin' (4:34)
07. I'm In The Mood (3:22)
08. High Heel Sneakers (4:56)
09. Wrong Doing Woman (3:00)
10. Cut You Loose (4:03)
11. Sally Mae (2:31)
12. Catfish Blues (3:34)
13. My Home's In The Delta (3:05)
14. Boogie Chillen (4:01)
15. Medley: Baby What You Want Me To Do - That's Allright (5:44)
~ (59:36)


Exact Audio Copy V1.0 beta 3 from 29. August 2011

Отчёт EAC об извлечении, выполненном 5. октября 2012, 20:56

Buddy Guy & Junior Wells / Alone & Acoustic

Дисковод: SONY CD-RW CRX230ED Adapter: 0 ID: 1

Режим чтения : Достоверность
Использование точного потока : Да
Отключение кэша аудио : Да
Использование указателей C2 : Нет

Коррекция смещения при чтении : 6
Способность читать области Lead-in и Lead-out : Нет
Заполнение пропущенных сэмплов тишиной : Да
Удаление блоков с тишиной в начале и конце : Нет
При вычислениях CRC использовались нулевые сэмплы : Да
Интерфейс : Встроенный Win32-интерфейс для Win NT/2000

Выходной формат : Внутренние WAV-операции
Формат сэмплов : 44.100 Гц; 16 бит; стерео


TOC извлечённого CD

Трек | Старт | Длительность | Начальный сектор | Конечный сектор
––––––––––––––––––––––––––––––––––-
1 | 0:00.00 | 3:49.25 | 0 | 17199
2 | 3:49.25 | 5:13.27 | 17200 | 40701
3 | 9:02.52 | 3:32.18 | 40702 | 56619
4 | 12:34.70 | 4:28.07 | 56620 | 76726
5 | 17:03.02 | 3:43.00 | 76727 | 93451
6 | 20:46.02 | 4:33.43 | 93452 | 113969
7 | 25:19.45 | 3:22.30 | 113970 | 129149
8 | 28:42.00 | 4:56.17 | 129150 | 151366
9 | 33:38.17 | 2:59.73 | 151367 | 164864
10 | 36:38.15 | 4:03.00 | 164865 | 183089
11 | 40:41.15 | 2:30.47 | 183090 | 194386
12 | 43:11.62 | 3:33.50 | 194387 | 210411
13 | 46:45.37 | 3:05.30 | 210412 | 224316
14 | 49:50.67 | 4:00.58 | 224317 | 242374
15 | 53:51.50 | 5:44.27 | 242375 | 268201


Характеристики диапазона извлечения и сообщения об ошибках

Выбранный диапазон

Имя файла E:\MusicCD\Torrent\Buddy Guy & Junior Wells - Alone & Acoustic\Buddy Guy & Junior Wells - Alone & Acoustic.wav

Пиковый уровень 94.1 %
Скорость извлечения 8.0 X
Качество диапазона 100.0 %
CRC теста 52F45EB5
CRC копии 52F45EB5
Копирование… OK

Ошибок не произошло


AccurateRip: сводка

Трек 1 : извлечено точно (доверие 2) [9F78C3EA] (AR v2)
Трек 2 : извлечено точно (доверие 2) [D2A9D81A] (AR v2)
Трек 3 : извлечено точно (доверие 2) [FC3FF949] (AR v2)
Трек 4 : извлечено точно (доверие 2) [49827320] (AR v2)
Трек 5 : извлечено точно (доверие 2) [A1B12FF8] (AR v2)
Трек 6 : извлечено точно (доверие 2) [D6A48E67] (AR v2)
Трек 7 : извлечено точно (доверие 2) [79791B5C] (AR v2)
Трек 8 : извлечено точно (доверие 2) [00E1A5B6] (AR v2)
Трек 9 : извлечено точно (доверие 2) [290AAF68] (AR v2)
Трек 10 : извлечено точно (доверие 2) [2305B851] (AR v2)
Трек 11 : извлечено точно (доверие 2) [828DE63C] (AR v2)
Трек 12 : извлечено точно (доверие 2) [0B64FD4E] (AR v2)
Трек 13 : извлечено точно (доверие 2) [792C49D4] (AR v2)
Трек 14 : извлечено точно (доверие 2) [E2747255] (AR v2)
Трек 15 : извлечено точно (доверие 3) [35CC6583] (AR v2)

Все треки извлечены точно

Конец отчёта

==== Контрольная сумма отчёта 1F8B35944EB68A98081480608D915984D8840FD451FDE8FF94FD0FF996A39BC8 ====



[CUETools log; Date: 2014.07.11. 23:25:45; Version: 2.1.4]
[CTDB TOCID: GhToXMBr3.E6GYZ1HoCzuSgp_4M-] found.
Track | CTDB Status
1 | (28/29) Accurately ripped
2 | (29/29) Accurately ripped
3 | (29/29) Accurately ripped
4 | (29/29) Accurately ripped
5 | (29/29) Accurately ripped
6 | (29/29) Accurately ripped
7 | (18/29) Accurately ripped, or (11/29) differs in 12 samples @00:05:65-00:05:67
8 | (29/29) Accurately ripped
9 | (29/29) Accurately ripped
10 | (29/29) Accurately ripped
11 | (29/29) Accurately ripped
12 | (29/29) Accurately ripped
13 | (29/29) Accurately ripped
14 | (28/29) Accurately ripped
15 | (29/29) Accurately ripped
[AccurateRip ID: 00211034-01731262-af0df80f] found.
Track [ CRC | V2 ] Status
01 [30e30dcd|9f78c3ea] (030+012/122) Accurately ripped
02 [726b2cfa|d2a9d81a] (027+013/122) Accurately ripped
03 [fc71ac12|fc3ff949] (029+013/124) Accurately ripped
04 [3fc9509e|49827320] (028+013/123) Accurately ripped
05 [285c100c|a1b12ff8] (029+013/124) Accurately ripped
06 [76aaec85|d6a48e67] (029+013/124) Accurately ripped
07 [81f634b0|79791b5c] (028+013/123) Accurately ripped
08 [91cd4794|00e1a5b6] (028+013/122) Accurately ripped
09 [c5d9465f|290aaf68] (029+011/121) Accurately ripped
10 [838a5fef|2305b851] (029+012/122) Accurately ripped
11 [2d371266|828de63c] (029+012/122) Accurately ripped
12 [3de2362a|0b64fd4e] (029+013/122) Accurately ripped
13 [6de2329f|792c49d4] (030+013/124) Accurately ripped
14 [818fa94b|e2747255] (028+012/120) Accurately ripped
15 [ff5c51aa|35cc6583] (029+013/120) Accurately ripped
Offsetted by -1083:
01 [bfb8880b] (009/122) Accurately ripped
02 [2de35380] (010/122) Accurately ripped
03 [8d3f0d06] (010/124) Accurately ripped
04 [c236a20c] (010/123) Accurately ripped
05 [b7f92295] (010/124) Accurately ripped
06 [cb38f8c6] (010/124) Accurately ripped
07 [65f5655f] (010/123) Accurately ripped
08 [e65a3ddb] (009/122) Accurately ripped
09 [dcaf0de9] (009/121) Accurately ripped
10 [dd6d81a9] (009/122) Accurately ripped
11 [535021bf] (009/122) Accurately ripped
12 [695e4d12] (009/122) Accurately ripped
13 [b6026e77] (009/124) Accurately ripped
14 [b1391e4c] (009/120) Accurately ripped
15 [aa8dfb73] (009/120) Accurately ripped
Offsetted by -681:
01 [1b5df1b7] (002/122) Accurately ripped
02 [edf962fc] (002/122) Accurately ripped
03 [34ad03f0] (002/124) Accurately ripped
04 [0bee6029] (002/123) Accurately ripped
05 [4bd15b45] (002/124) Accurately ripped
06 [5c518d6f] (002/124) Accurately ripped
07 [9fb2873c] (002/123) Accurately ripped
08 [ce7a70fa] (002/122) Accurately ripped
09 [7f61e713] (002/121) Accurately ripped
10 [07228727] (002/122) Accurately ripped
11 [28ce4699] (002/122) Accurately ripped
12 [04215922] (002/122) Accurately ripped
13 [27171e36] (002/124) Accurately ripped
14 [0e1c3233] (002/120) Accurately ripped
15 [ceff72ad] (002/120) Accurately ripped
Offsetted by 131:
01 [3cebbe3f] (010/122) Accurately ripped
02 [f5273864] (010/122) Accurately ripped
03 [e834922b] (010/124) Accurately ripped
04 [d6ddef55] (010/123) Accurately ripped
05 [91ada639] (010/124) Accurately ripped
06 [25dbccf4] (010/124) Accurately ripped
07 [62803bd6] (010/123) Accurately ripped
08 [3d059b08] (010/122) Accurately ripped
09 [173b800c] (010/121) Accurately ripped
10 [13f8bf26] (010/122) Accurately ripped
11 [298d6475] (010/122) Accurately ripped
12 [e6207f82] (010/122) Accurately ripped
13 [83a83213] (010/124) Accurately ripped
14 [1c2c8f7a] (010/120) Accurately ripped
15 [efda72c9] (009/120) Accurately ripped
Offsetted by 136:
01 [3f5599fd] (006/122) Accurately ripped
02 [69884a6a] (006/122) Accurately ripped
03 [4b713791] (006/124) Accurately ripped
04 [4961968c] (006/123) Accurately ripped
05 [8ca734b3] (006/124) Accurately ripped
06 [6ee882cd] (006/124) Accurately ripped
07 [7342e3eb] (006/123) Accurately ripped
08 [81956519] (006/122) Accurately ripped
09 [9ffe8d92] (006/121) Accurately ripped
10 [e49179f4] (006/122) Accurately ripped
11 [df27290e] (006/122) Accurately ripped
12 [b1ec286a] (006/122) Accurately ripped
13 [31d7d47b] (006/124) Accurately ripped
14 [c11b9bcf] (006/120) Accurately ripped
15 [56d57dd2] (006/120) Accurately ripped
Offsetted by -159:
01 [b0eff533] (000/122) No match (V2 was not tested)
02 [97292308] (000/122) No match (V2 was not tested)
03 [840d36a5] (000/124) No match (V2 was not tested)
04 [68888517] (000/123) No match (V2 was not tested)
05 [5240e19b] (000/124) No match (V2 was not tested)
06 [95834a5e] (000/124) No match (V2 was not tested)
07 [cba4601f] (000/123) No match (V2 was not tested)
08 [07f98703] (000/122) No match (V2 was not tested)
09 [f32e3068] (000/121) No match (V2 was not tested)
10 [c3cd251a] (000/122) No match (V2 was not tested)
11 [04b6d9cb] (000/122) No match (V2 was not tested)
12 [b9fc3af2] (000/122) No match (V2 was not tested)
13 [7d9fa007] (000/124) No match (V2 was not tested)
14 [ff7d9670] (000/120) No match (V2 was not tested)
15 [9af9f2bf] (000/120) No match (V2 was not tested)

Track Peak [ CRC32 ] [W/O NULL] [ LOG ]
– 94,1 [52F45EB5] [BD5B8EC2] CRC32
01 88,8 [45E5196B] [28A81C61]
02 90,8 [C7AE08C1] [DB8548DB]
03 92,4 [E0907FE4] [8D2F1203]
04 93,5 [BBF316D1] [370A5781]
05 92,7 [366EA72B] [48B1FBC6]
06 93,6 [619BB1CE] [27482E99]
07 94,1 [2F9E2A30] [A7BACD3C]
08 92,1 [E3BD7840] [E772A68D]
09 90,7 [959995A6] [9D8F759B]
10 79,5 [42A6846B] [072D9561]
11 91,5 [754FC485] [C208164A]
12 90,3 [50A11619] [49ABF243]
13 91,5 [FEBF27D6] [3A258ECB]
14 93,9 [33336C2A] [89AB17B4]
15 94,0 [51963422] [2DC56A6D]


Thx to squirr