Subcategories

Buddy Guy & Junior Wells - Drinkin' TNT 'N' Smokin' Dynamite (1988) REPOST

Posted By: uff
Buddy Guy & Junior Wells - Drinkin' TNT 'N' Smokin' Dynamite (1988) REPOST

Buddy Guy & Junior Wells - Drinkin' TNT 'N' Smokin' Dynamite (1988)
Blues | 1cd | EAC Rip | Flac + Cue + Log | covers
Blind Pig BP71182 | rec: 1974 | 325Mb

Cut at the 1974 Montreux Jazz Festival with Stones' bassist Bill Wyman anchoring the rhythm section, the set captures some of the ribald musical repartee that customarily distinguished the pairing of Buddy Guy and Junior Wells, though they certainly break no new ground as they roll through their signature songs. ~Allmusic

Track listing
01. Introduction (0:53)
02. Ah'w Baby-Everything Gonna Be Alright (4:06)
03. How Can One Woman Be So Mean (6:21)
04. Checking On My Baby (4:55)
05. When You See The Tears From My Eyes (6:18)
06. Introduction (1:16)
07. Ten Years Ago (8:46)
08. Messing With The Kid (3:38)
09. Hoodoo Man Blues (5:42)
10. My Younger Days (2:54)



Exact Audio Copy V1.0 beta 3 from 29. August 2011

Отчёт EAC об извлечении, выполненном 8. апреля 2013, 19:47

Buddy Guy & Junior Wells / Drinkin' TNT 'N' Smokin' Dynamite

Дисковод: SONY CD-RW CRX230ED Adapter: 0 ID: 1

Режим чтения : Достоверность
Использование точного потока : Да
Отключение кэша аудио : Да
Использование указателей C2 : Нет

Коррекция смещения при чтении : 6
Способность читать области Lead-in и Lead-out : Нет
Заполнение пропущенных сэмплов тишиной : Да
Удаление блоков с тишиной в начале и конце : Нет
При вычислениях CRC использовались нулевые сэмплы : Да
Интерфейс : Установленный внешний ASPI-интерфейс

Выходной формат : Внутренние WAV-операции
Формат сэмплов : 44.100 Гц; 16 бит; стерео


TOC извлечённого CD

Трек | Старт | Длительность | Начальный сектор | Конечный сектор
––––––––––––––––––––––––––––––––––-
1 | 0:00.12 | 0:53.00 | 12 | 3986
2 | 0:53.12 | 4:06.45 | 3987 | 22481
3 | 4:59.57 | 6:21.48 | 22482 | 51104
4 | 11:21.30 | 4:55.65 | 51105 | 73294
5 | 16:17.20 | 6:18.55 | 73295 | 101699
6 | 22:36.00 | 1:16.37 | 101700 | 107436
7 | 23:52.37 | 8:46.13 | 107437 | 146899
8 | 32:38.50 | 3:38.62 | 146900 | 163311
9 | 36:17.37 | 5:42.43 | 163312 | 189004
10 | 42:00.05 | 2:54.70 | 189005 | 202124


Характеристики диапазона извлечения и сообщения об ошибках

Выбранный диапазон

Имя файла E:\MusicCD\Torrent\Buddy Guy\Buddy Guy & Junior Wells - Drinkin' TNT 'N' Smokin' Dynamite\Buddy Guy & Junior Wells - Drinkin' TNT 'N' Smokin' Dynamite.wav

Пиковый уровень 100.0 %
Скорость извлечения 7.4 X
Качество диапазона 100.0 %
CRC теста 23B65FA5
CRC копии 23B65FA5
Копирование… OK

Ошибок не произошло


AccurateRip: сводка

Трек 1 : извлечено точно (доверие 4) [9E265211] (AR v1)
Трек 2 : извлечено точно (доверие 4) [BD2AE36A] (AR v1)
Трек 3 : извлечено точно (доверие 4) [6A1E3497] (AR v1)
Трек 4 : извлечено точно (доверие 3) [3A02083B] (AR v1)
Трек 5 : извлечено точно (доверие 4) [7AC9CBAC] (AR v1)
Трек 6 : извлечено точно (доверие 4) [0FF10763] (AR v1)
Трек 7 : извлечено точно (доверие 4) [02674137] (AR v1)
Трек 8 : извлечено точно (доверие 5) [53B534EA] (AR v1)
Трек 9 : извлечено точно (доверие 4) [2FD4CEAE] (AR v1)
Трек 10 : извлечено точно (доверие 4) [05D5E44A] (AR v1)

Все треки извлечены точно

Конец отчёта

==== Контрольная сумма отчёта 1757A1E2AAF68A1838882251BE0125F37C03A64E9BCBD52D07E3D7AE7EEBAAEC ====



[CUETools log; Date: 2016.04.21. 11:47:53; Version: 2.1.5]
Pregap length 00:00:12.
[CTDB TOCID: 0Wo1amSBN0U1rhAt3.Axf1GAM8k-] found.
Track | CTDB Status
1 | (11/11) Accurately ripped
2 | (11/11) Accurately ripped
3 | (11/11) Accurately ripped
4 | (11/11) Accurately ripped
5 | (11/11) Accurately ripped
6 | (11/11) Accurately ripped
7 | (11/11) Accurately ripped
8 | (11/11) Accurately ripped
9 | (11/11) Accurately ripped
10 | (11/11) Accurately ripped
[AccurateRip ID: 001031f0-0085c62b-850a870a] found.
Track [ CRC | V2 ] Status
01 [9e265211|7280bca8] (05+03/26) Accurately ripped
02 [bd2ae36a|6ef042c0] (05+03/26) Accurately ripped
03 [6a1e3497|c49ac269] (05+03/26) Accurately ripped
04 [3a02083b|f9897da6] (04+03/25) Accurately ripped
05 [7ac9cbac|63d224fe] (05+02/24) Accurately ripped
06 [0ff10763|a29bab0d] (05+03/26) Accurately ripped
07 [02674137|1d03b228] (05+03/26) Accurately ripped
08 [53b534ea|e8eb5ce5] (06+03/27) Accurately ripped
09 [2fd4ceae|fc18b82f] (05+03/26) Accurately ripped
10 [05d5e44a|c7b4f904] (05+02/25) Accurately ripped
Offsetted by 900:
01 [5e954836] (02/26) Accurately ripped
02 [7a1b505a] (02/26) Accurately ripped
03 [5054371a] (02/26) Accurately ripped
04 [ff90c71c] (02/25) Accurately ripped
05 [22b0191c] (02/24) Accurately ripped
06 [c691177f] (02/26) Accurately ripped
07 [a713066f] (02/26) Accurately ripped
08 [f9c226a9] (02/27) Accurately ripped
09 [a96e8ea9] (02/26) Accurately ripped
10 [7c0f9663] (02/25) Accurately ripped
Offsetted by 2853:
01 [39e8b0bb] (08/26) Accurately ripped
02 [89f68c86] (08/26) Accurately ripped
03 [089a0552] (08/26) Accurately ripped
04 [92fb8d2d] (08/25) Accurately ripped
05 [12ed7238] (08/24) Accurately ripped
06 [3ff38294] (08/26) Accurately ripped
07 [3147c70e] (08/26) Accurately ripped
08 [02cbfe0e] (08/27) Accurately ripped
09 [e6bb898f] (08/26) Accurately ripped
10 [a694cfad] (00/25) No match (V2 was not tested)

Track Peak [ CRC32 ] [W/O NULL] [ LOG ]
– 100,0 [23B65FA5] [BD478A51] CRC32
01 68,7 [C29D0554] [6BA497DE]
02 85,6 [32396DB6] [6D17D263]
03 96,2 [6E09B82B] [14E74814]
04 89,5 [FA322433] [638FCF12]
05 100,0 [E2CF7690] [927661D7]
06 52,2 [43248602] [1AE654E7]
07 90,5 [66E628CB] [145328CB]
08 87,3 [A0D915DE] [A3071A5D]
09 81,3 [DC1661F6] [16DDF933]
10 80,3 [54AC0930] [D5BC0631]


Thx to squirr
Bigfile
Datafile

password: asd