Subcategories

Buddy Rich Big Band - Buddy Rich Band (1981)

Posted By: PCWhizzkid
Buddy Rich Big Band - Buddy Rich Band (1981)

Buddy Rich Big Band - Buddy Rich Band (1981)
EAC | FLAC+CUE+LOG - 233 MB | SCANS - 13 MB (600dpi)
Genre: Jazz / Big Band | Label: MCA | Catalogue No: MCAD 31151
Filesonic & Fileserve

This release finds Buddy Rich, nearly 65 at the time, trying to appeal to a popular audience by infusing more elements of funk and rock into the big band sound."Good News" closes the album and is the best track of the set. It is an epic at 14:24, which features an extended solo from Rich himself. It was a showcase piece which extended out even further in concert.

TRACK LIST:

1. Never Can Say Goodbye 4:48
2. Fantasy 4:35
3. Listen Here Goes Funky 3:30
4. Slow Funk 5:42
5. Beulah Witch 3:31
6. Good News 14:24

Exact Audio Copy V1.0 beta 1 from 15. November 2010

EAC extraction logfile from 8. April 2011, 11:15

Buddy Rich / Buddy Rich Band

Used drive : HL-DT-STDVDRAM GH22NS40 Adapter: 5 ID: 0

Read mode : Secure
Utilize accurate stream : Yes
Defeat audio cache : Yes
Make use of C2 pointers : No

Read offset correction : 667
Overread into Lead-In and Lead-Out : No
Fill up missing offset samples with silence : Yes
Delete leading and trailing silent blocks : No
Null samples used in CRC calculations : Yes
Used interface : Native Win32 interface for Win NT & 2000

Used output format : User Defined Encoder
Selected bitrate : 768 kBit/s
Quality : High
Add ID3 tag : No
Command line compressor : C:\Program Files (x86)\Exact Audio Copy\FLAC\FLAC.EXE
Additional command line options : -6 -V -T "ARTIST=%a" -T "TITLE=%t" -T "ALBUM=%g" -T "DATE=%y" -T "TRACKNUMBER=%n" -T "GENRE=%m" -T "COMMENT=%e" %j–picture="%i"%j %s -o %d


TOC of the extracted CD

Track | Start | Length | Start sector | End sector
––––––––––––––––––––––––––––-
1 | 0:00.00 | 4:54.20 | 0 | 22069
2 | 4:54.20 | 4:41.40 | 22070 | 43184
3 | 9:35.60 | 3:34.20 | 43185 | 59254
4 | 13:10.05 | 5:46.02 | 59255 | 85206
5 | 18:56.07 | 3:34.68 | 85207 | 101324
6 | 22:31.00 | 14:26.20 | 101325 | 166294


Range status and errors

Selected range

Filename T:\Buddy Rich - Buddy Rich Band.wav

Peak level 100.0 %
Extraction speed 0.1 X
Range quality 100.0 %
Test CRC 8836B7D8
Copy CRC 8836B7D8
Copy OK

No errors occurred


AccurateRip summary

Track 1 cannot be verified as accurate (confidence 1) [15504BD6], AccurateRip returned [9F638CED]
Track 2 cannot be verified as accurate (confidence 1) [645748CC], AccurateRip returned [2305EBFD]
Track 3 cannot be verified as accurate (confidence 1) [CEEB74C1], AccurateRip returned [25213D66]
Track 4 cannot be verified as accurate (confidence 1) [E2988BD1], AccurateRip returned [09B7B567]
Track 5 cannot be verified as accurate (confidence 1) [D50F63D4], AccurateRip returned [70B9F68B]
Track 6 cannot be verified as accurate (confidence 1) [48766672], AccurateRip returned [90F0C336]

No tracks could be verified as accurate
You may have a different pressing from the one(s) in the database

End of status report

==== Log checksum 7E77B3BE1B09298E97274827029BCD860756F3CD4379B37E72F0166B7736A131 ====




<span style="color:#ffffff">This is an original Rip &amp; Scan by me &quot;PCWhizzkid&quot; on <a href="http://www.avaxhome.ws" target="_blank">www.avaxhome.ws</a></span>


Please Do Not Steal My Posts For Use On Other Sites



FILESONIC Links

http://www.filesonic.com/file/570395481/BRBRB.part1.rar
http://www.filesonic.com/file/570539971/BRBRB.part2.rar


FILESERVE Links

http://www.fileserve.com/file/FFH8CuU/BRBRB.part1.rar
http://www.fileserve.com/file/E3mrwh5/BRBRB.part2.rar


<span style="color:#ffffff">Please No Mirrors</span>