Subcategories

Buddy Rich Big Band- Swingin' New Big Band (1995) [Lossless]

Posted By: PCWhizzkid
Buddy Rich Big Band- Swingin' New Big Band (1995) [Lossless]

Buddy Rich Big Band- Swingin' New Big Band (1995) [Lossless]
EAC V1.0 beta 1 | FLAC ( Secure Mode ) Image + Cue + Log - 383 MB
FULL SCANS - 14 MB (600dpi) | Recovery Record + 3%
Genre: Jazz / Big Band | Label: Pacific Jazz | Catalogue No: 724382523221
Wupload & Filesonic

1966 was a most illogical time for anyone to try forming a new big band but Buddy Rich beat the odds. This CD reissues the first album by the Buddy Rich Orchestra, augmenting the original Lp program with nine previously unissued performances from the same sessions. The arrangements (eight by Oliver Nelson along with charts by Bill Holman, Phil Wilson, Jay Corre, Don Rader and others) swing, put the emphasis on the ensembles and primarily feature Corre's tenor although trumpeter Bobby Shew, altoist Pete Yellin, pianist John Bunch and guitarist Barry Zweig are also heard.An enjoyable and somewhat historic set.


Personnel:

Buddy Rich (drums); Barry Zweig (guitar); Marty Flax, Jay Corre (flute, clarinet, tenor saxophone); Pete Yellin (flute, alto saxophone); Gene Quill (clarinet, alto saxophone); Stephen Perlow (bass clarinet, baritone saxophone); John Sottile, Walter Battegello, Yoshito Murakami, Bobby Shew (trumpet); John Boice, James Trimble (trombone); Dennis Good, Mike Waverley (bass trombone); John Bunch (piano).


TRACK LIST:

1.Readymix 3:22

Soloist – Jay Corre, Jon Bunch, Pete Yellin*
Written-By, Arranged By – Bill Holman

2.Basically Blues 5:39

Soloist – Jay Corre, John Boice, John Bunch, Walter Battagello
Written-By, Arranged By – Phil Wilson

3.Critic's Choice 3:28

Soloist – Jay Corre, John Bunch
Written-By, Arranged By – Oliver Nelson

4.My Man's Gone Now 3:05

Arranged By – John Boice
Soloist – John Boice
Written-By – Heyward*, Gershwin*

5.Up Tight (Everything's Alright) 2:49

Arranged By – Oliver Nelson
Soloist – Jay Corre
Written-By – H. Cosby*, S. Judkins*, S. Moy*

6.Sister Sadie 3:15

Soloist – Walter Battagello
Arranged By, Soloist – Jay Corre
Written-By – Horace Silver

7.More Soul 4:19

Soloist – Barry Zweig, Jay Corre
Written-By, Arranged By – Oliver Nelson
Written-By – King Curtis

8.West Side Story Medley: Overture-Coole-Something's Coming-Somewhere 10:48

Arranged By – Bill Reddie
Soloist – Jim Trimble*, Jay Corre
Written-By – L. Bernstein*, S. Sondheim*

9.What'd I Say 2:56

Arranged By – Oliver Nelson
Soloist – Jay Corre
Written-By – Ray Charles

10.Hoe Down 2:47

Soloist – Jim Trimble*
Written-By, Arranged By – Oliver Nelson

11.Step Right Up 3:17

Soloist – Gene Quill, Jim Trimble*
Written-By, Arranged By – Oliver Nelson

12.Apples (Aka Gino) 2:32

Soloist – Buddy Rich
Written-By, Arranged By – Arthur M. Wiggins

13.Chicago 2:26

Arranged By – Don Rader
Soloist – Bobby Shew
Written-By – Fred Fisher (2)

14.In A Mellotone 3:47

Arranged By – Oliver Nelson
Soloist – Bobby Shew
Written-By – Duke Ellington

15.Never Will I Marry 2:40

Arranged By – Don Piestrop*
Soloist – Jay Corre
Written-By – Frank Loesser

16.Lament For Lester 2:45

Written-By, Arranged By, Soloist – Jay Corre

17.Naptown Blues 3:29

Arranged By – Oliver Nelson
Soloist – John Boice, John Bunch
Written-By – Wes Montgomery


Recording Time 62 minutes


Exact Audio Copy V1.0 beta 1 from 15. November 2010

EAC extraction logfile from 21. June 2011, 16:17

Buddy Rich Big Band / Swingin' New Big Band

Used drive : HL-DT-STDVDRAM GH22NS40 Adapter: 4 ID: 0

Read mode : Secure
Utilize accurate stream : Yes
Defeat audio cache : Yes
Make use of C2 pointers : No

Read offset correction : 667
Overread into Lead-In and Lead-Out : No
Fill up missing offset samples with silence : Yes
Delete leading and trailing silent blocks : No
Null samples used in CRC calculations : Yes
Used interface : Native Win32 interface for Win NT & 2000

Used output format : User Defined Encoder
Selected bitrate : 1024 kBit/s
Quality : High
Add ID3 tag : No
Command line compressor : C:\Program Files (x86)\Exact Audio Copy\FLAC\FLAC.EXE
Additional command line options : -6 -V -T "ARTIST=%a" -T "TITLE=%t" -T "ALBUM=%g" -T "DATE=%y" -T "TRACKNUMBER=%n" -T "GENRE=%m" -T "COMMENT=%e" %j–picture="%i"%j %s -o %d


TOC of the extracted CD

Track | Start | Length | Start sector | End sector
––––––––––––––––––––––––––––-
1 | 0:00.00 | 3:22.40 | 0 | 15189
2 | 3:22.40 | 5:40.22 | 15190 | 40711
3 | 9:02.62 | 3:31.13 | 40712 | 56549
4 | 12:34.00 | 3:05.10 | 56550 | 70434
5 | 15:39.10 | 2:49.65 | 70435 | 83174
6 | 18:29.00 | 3:15.60 | 83175 | 97859
7 | 21:44.60 | 4:20.00 | 97860 | 117359
8 | 26:04.60 | 10:48.62 | 117360 | 166021
9 | 36:53.47 | 2:50.40 | 166022 | 178811
10 | 39:44.12 | 2:41.10 | 178812 | 190896
11 | 42:25.22 | 3:17.43 | 190897 | 205714
12 | 45:42.65 | 2:33.02 | 205715 | 217191
13 | 48:15.67 | 2:26.03 | 217192 | 228144
14 | 50:41.70 | 3:44.72 | 228145 | 245016
15 | 54:26.67 | 2:42.63 | 245017 | 257229
16 | 57:09.55 | 2:45.20 | 257230 | 269624
17 | 59:55.00 | 3:28.70 | 269625 | 285294


Range status and errors

Selected range

Filename H:\Buddy Rich Big Band - Swingin' New Big Band.wav

Peak level 100.0 %
Extraction speed 0.1 X
Range quality 100.0 %
Copy CRC BAAEFE4C
Copy OK

No errors occurred


AccurateRip summary

Track 1 accurately ripped (confidence 4) [CED91BFA]
Track 2 accurately ripped (confidence 4) [876351AC]
Track 3 accurately ripped (confidence 4) [AA9C597C]
Track 4 accurately ripped (confidence 4) [888FED04]
Track 5 accurately ripped (confidence 4) [4A85D40A]
Track 6 accurately ripped (confidence 4) [148F2B88]
Track 7 accurately ripped (confidence 4) [9D486630]
Track 8 accurately ripped (confidence 4) [CDACA6C0]
Track 9 accurately ripped (confidence 4) [521D09F8]
Track 10 accurately ripped (confidence 4) [7E5E403F]
Track 11 accurately ripped (confidence 4) [6C0CED57]
Track 12 accurately ripped (confidence 4) [6C52A2C3]
Track 13 accurately ripped (confidence 4) [19DCC395]
Track 14 accurately ripped (confidence 4) [264FDE0C]
Track 15 accurately ripped (confidence 4) [37E18C1D]
Track 16 accurately ripped (confidence 4) [E67B6C97]
Track 17 accurately ripped (confidence 4) [2E23D994]

All tracks accurately ripped

End of status report

==== Log checksum 4088867CAD215D2B800595C38903A6396DF472AE15FE6FEF3F920314D18C532A ====




Buddy Rich Big Band- Swingin' New Big Band (1995) [Lossless]



Buddy Rich Big Band- Swingin' New Big Band (1995) [Lossless]