Subcategories

Buena Vista Social Club - Lost And Found (2015) {World Circuit}

Posted By: tiburon
Buena Vista Social Club - Lost And Found (2015) {World Circuit}

Buena Vista Social Club - Lost And Found (2015) {World Circuit}
EAC 1.0b4 | FLAC Image | Cue+Log | Full Scans 300dpi | 295MB + 5% Recovery
Genre: Latin, Cuban, Jazz, Son

Coming almost two decades after the release of the original Grammy-winning, self-titled LP, the new album is a collection of previously unreleased tracks––some of which were recorded during the original album’s sessions in Havana and others from the years that followed. The studio tracks on Lost and Found were recorded at the 1996 Egrem studio sessions in Havana and during a period of rich and prolific creativity stretching into the early 2000s following the recording of the original album. Lost and Found also features live recordings from the world tours of Buena Vista’s legendary veterans.
Track List
01. Bruca Manigua (Live) [feat. Ibrahim Ferrer]
02. Macusa (feat. Eliades Ochoa & Compay Segundo)
03. Tiene Sabor (feat. Omara Portuondo)
04. Bodas de Oro (feat. Ruben Gonzalez & Jesus Ramos)
05. Black Chicken 37 (feat. Orlando Lopez & Anga Diaz)
06. Habanera (feat. Manuel Mirabal)
07. Como Fue (feat. Ibrahim Ferrer)
08. Guajira en F (feat. Jesus Ramos)
09. Quiereme Mucho (feat. Eliades Ochoa)
10. Pedacito de Papel (feat. Eliades Ochoa)
11. Mami Me Gusto (feat. Ibrahim Ferrer)
12. Lagrimas Negras (feat. Omara Portuondo)
13. Como Siento Yo (feat. Ruben Gonzalez)
14. Ruben Sings! (feat. Ruben Gonzalez)"

A collection of previously unreleased recordings

Produced by Nick Gold and Ry Cooder


Exact Audio Copy V1.0 beta 4 from 7. December 2014

EAC extraction logfile from 22. March 2015, 13:51

Buena Vista Social Club / Lost And Found

Used drive : PIONEER DVD-RW DVR-221L Adapter: 1 ID: 0

Read mode : Secure
Utilize accurate stream : Yes
Defeat audio cache : Yes
Make use of C2 pointers : No

Read offset correction : 6
Overread into Lead-In and Lead-Out : No
Fill up missing offset samples with silence : Yes
Delete leading and trailing silent blocks : No
Null samples used in CRC calculations : Yes
Used interface : Installed external ASPI interface

Used output format : Internal WAV Routines
Sample format : 44.100 Hz; 16 Bit; Stereo


TOC of the extracted CD

Track | Start | Length | Start sector | End sector
––––––––––––––––––––––––––––-
1 | 0:00.00 | 5:18.73 | 0 | 23922
2 | 5:18.73 | 4:07.19 | 23923 | 42466
3 | 9:26.17 | 3:21.34 | 42467 | 57575
4 | 12:47.51 | 4:43.49 | 57576 | 78849
5 | 17:31.25 | 3:37.29 | 78850 | 95153
6 | 21:08.54 | 2:24.18 | 95154 | 105971
7 | 23:32.72 | 4:01.19 | 105972 | 124065
8 | 27:34.16 | 4:25.27 | 124066 | 143967
9 | 31:59.43 | 1:32.73 | 143968 | 150940
10 | 33:32.41 | 2:41.67 | 150941 | 163082
11 | 36:14.33 | 5:17.71 | 163083 | 186928
12 | 41:32.29 | 4:09.55 | 186929 | 205658
13 | 45:42.09 | 2:01.24 | 205659 | 214757
14 | 47:43.33 | 0:50.30 | 214758 | 218537


Range status and errors

Selected range

Filename D:\POST 2\Buena Vista Social Club - Lost And Found.wav

Peak level 89.1 %
Extraction speed 7.1 X
Range quality 100.0 %
Test CRC A330EB7A
Copy CRC A330EB7A
Copy OK

No errors occurred


AccurateRip summary

Track 1 not present in database
Track 2 not present in database
Track 3 not present in database
Track 4 not present in database
Track 5 not present in database
Track 6 not present in database
Track 7 not present in database
Track 8 not present in database
Track 9 not present in database
Track 10 not present in database
Track 11 not present in database
Track 12 not present in database
Track 13 not present in database
Track 14 not present in database

None of the tracks are present in the AccurateRip database

End of status report


––––––––––––––––––––––––––––––––––––––––
Analyzed: Buena Vista Social Club / Lost And Found
––––––––––––––––––––––––––––––––––––––––

DR Peak RMS Duration Track
––––––––––––––––––––––––––––––––––––––––
DR7 -2.01 dB -10.98 dB 5:19 01-Bruca Manigua
DR10 -1.00 dB -12.36 dB 4:07 02-Macusa
DR9 -2.87 dB -13.75 dB 3:21 03-Tiene Sabor
DR10 -1.23 dB -12.76 dB 4:44 04-Bodas De Oro
DR11 -1.00 dB -13.78 dB 3:37 05-Black Chicken 37
DR11 -2.36 dB -15.51 dB 2:24 06-Habanera
DR9 -1.01 dB -11.93 dB 4:01 07-Como Fue
DR9 -1.00 dB -11.45 dB 4:25 08-Guajira En F
DR11 -7.57 dB -22.83 dB 1:33 09-Quiereme Mucho
DR12 -1.00 dB -15.52 dB 2:42 10-Pedacito De Papel
DR9 -1.00 dB -12.19 dB 5:18 11-Mami Me Gusto
DR9 -1.00 dB -12.18 dB 4:10 12-Lagrimas Negras
DR12 -4.00 dB -21.76 dB 2:01 13-Como Siento Yo
DR14 -4.93 dB -25.95 dB 0:50 14-Ruben Sings
––––––––––––––––––––––––––––––––––––––––

Number of tracks: 14
Official DR value: DR10

Samplerate: 44100 Hz
Channels: 2
Bits per sample: 16
Bitrate: 817 kbps
Codec: FLAC
================================================================================

Buena Vista Social Club - Lost And Found (2015) {World Circuit}
Buena Vista Social Club - Lost And Found (2015) {World Circuit}
Buena Vista Social Club - Lost And Found (2015) {World Circuit}


Thanks for the rip to Ramones