Subcategories

Buffalo - Dead Forever... (1972) [Remastered 2006] Re-up

Posted By: Andi_Deris
Buffalo - Dead Forever... (1972) [Remastered 2006] Re-up

Buffalo - Dead Forever… (1972) [Remastered 2006]
EAC Rip | FLAC: Image+Cue+Log | 445 Mb | MP3 CBR 320 kbps | 162 Mb | Scans | 82 Mb | 01:05:04
Aztec Music | AVSCD010
Rock, Hard Rock, Heavy Psychedelic

Dead Forever… is the debut album for Australian proto-Heavy Metal band Buffalo, recorded and originally released in 1972. Considered by some to be the first Australian heavy metal album, Dead Forever… also strongly displayed the band's progressive rock and psychedelic influences. Significantly, it was the first release by a non-British and non-European artist on the legendary Vertigo label. The album was remastered and reissued in March 2006 by Australian record label Aztec Music on CD with additional tracks, including an A-side and B-side released by the pre-Buffalo outfit Head.

Buffalo - Dead Forever... (1972) [Remastered 2006] Re-up




Buffalo - Dead Forever... (1972) [Remastered 2006] Re-up


Track Listing

01. Leader (6:03)
02. Suzie Sunshine (2:53)
03. Pay My Dues (Blues Image cover) (5:34)
04. I'm a Mover (Free cover) (10:46)
05. Ballad of Irving Fink (4:30)
06. Bean Stew (7:05)
07. Forest Rain (6:30)
08. Dead Forever (5:39)

Bonus Tracks
HEAD single, 1971:
09. Hobo (A-side) (2:46)
10. Sad Song, Then (B-side) (2:37)
BUFFALO non-album singles, 1972:
11. No Particular Place to Go (Chuck Berry cover) (B-side) (4:53)
12. Just a Little Rock And Roll (A Shot of Rhythm and Blues) (Arthur Alexander cover) (A-side) (2:24)
13. Barbershop Rock (B-side) (3:24)

Produced by Spencer Lee

The Band

• Dave Tice - vocals
• Alan Milano - vocals
• Paul Balbi - drums
• Peter Wells (R.I.P. 2006) - bass
• John Baxter - guitar
• Steve Jones - drums

Notes

Comes in a six-panel digipak.
This Compilation © 2006 Aztec Music. Made in Australia.


Exact Audio Copy V0.99 prebeta 3 from 28. July 2007

EAC extraction logfile from 28. April 2010, 14:03

Buffalo / Dead Forever

Used drive : PIONEER DVD-RW DVR-118L Adapter: 0 ID: 0

Read mode : Secure
Utilize accurate stream : Yes
Defeat audio cache : Yes
Make use of C2 pointers : No

Read offset correction : 6
Overread into Lead-In and Lead-Out : No
Fill up missing offset samples with silence : Yes
Delete leading and trailing silent blocks : No
Null samples used in CRC calculations : Yes
Used interface : Installed external ASPI interface

Used output format : Internal WAV Routines
Sample format : 44.100 Hz; 16 Bit; Stereo


TOC of the extracted CD

Track | Start | Length | Start sector | End sector
––––––––––––––––––––––––––––-
1 | 0:00.30 | 6:03.12 | 30 | 27266
2 | 6:03.42 | 2:53.66 | 27267 | 40307
3 | 8:57.33 | 5:34.26 | 40308 | 65383
4 | 14:31.59 | 10:46.29 | 65384 | 113862
5 | 25:18.13 | 4:30.28 | 113863 | 134140
6 | 29:48.41 | 7:05.62 | 134141 | 166077
7 | 36:54.28 | 6:30.16 | 166078 | 195343
8 | 43:24.44 | 5:39.18 | 195344 | 220786
9 | 49:03.62 | 2:46.48 | 220787 | 233284
10 | 51:50.35 | 2:37.09 | 233285 | 245068
11 | 54:27.44 | 4:53.20 | 245069 | 267063
12 | 59:20.64 | 2:24.50 | 267064 | 277913
13 | 61:45.39 | 3:24.18 | 277914 | 293231


Range status and errors

Selected range

Filename C:\Buffalo - Dead Forever.wav

Peak level 100.0 %
Range quality 100.0 %
Test CRC 45EBEC95
Copy CRC 45EBEC95
Copy OK

No errors occurred


AccurateRip summary

Track 1 accurately ripped (confidence 3) [2B0B82F6]
Track 2 accurately ripped (confidence 3) [D51D9805]
Track 3 accurately ripped (confidence 3) [7BE31798]
Track 4 accurately ripped (confidence 3) [060114A6]
Track 5 accurately ripped (confidence 3) [9B82709D]
Track 6 accurately ripped (confidence 3) [90203821]
Track 7 accurately ripped (confidence 3) [8B9C0798]
Track 8 accurately ripped (confidence 3) [24BCCD6D]
Track 9 accurately ripped (confidence 3) [07F86F8F]
Track 10 accurately ripped (confidence 3) [513E3C79]
Track 11 accurately ripped (confidence 3) [5B5B905B]
Track 12 accurately ripped (confidence 3) [89895278]
Track 13 accurately ripped (confidence 3) [DDB15161]

All tracks accurately ripped

End of status report


Many thanks to the original uploader: sanparr

SEE also:
Buffalo 1973 Volcanic Rock [Remastered 2005]
Buffalo 1976 Mother's Choice [Remastered 2006]
Buffalo 1977 Average Rock 'n' Roller [Remastered 2006]



Password: pass