Subcategories

C.C. Catch - Fire Of Love 2001 (2001)

Posted By: v3122
C.C. Catch - Fire Of Love 2001 (2001)

C.C. Catch - Fire Of Love 2001 (2001))
EAC | Flac(Image) + Cue + Log & MP3 CBR 320Kbps
Stone Sound Records, SSR 8945 4877-2 | ~ 168 or 53 Mb | Scans(jpg) -> 9.67 Mb
Disco, Synth-pop, Euro House | Unofficial Release

Born Caroline Catharina Müller in the Netherlands, she moved with her family to Germany in the late '70s. In 1980, she became a member of the girl quartet Optimal, who issued two singles. During one of the band's concerts in Hamburg, she was approached by songwriter/producer Dieter Bohlen who had just taken the continental charts by storm with his duo Modern Talking. She signed up with Bohlen who then changed her stage name to C.C. Catch, and the debut single of the newly christened singer – "I Can Lose My Heart Tonight" – was released in the summer of 1985.

Her collaboration with Bohlen lasted until 1989, resulted in four albums and 12 singles, and made C.C. Catch a queen of continental discos. However, the artist felt that she was largely perceived as a female version of Bohlen's own band Modern Talking, and she wanted to diversify her repertoire by contributing her own material. After Bohlen denied her request, the singer decided not to renew the contract with her producer and Hansa Records. She subsequently won in court the right to use the name C.C. Catch and her first album without Bohlen – tellingly titled Hear What I Say – came out in the end of 1989. Produced in London by Andy Taylor, Dave Clayton, and Jo Dworniak, it was markedly different in style from her previous releases and contained seven songs co-written by the artist herself. The album was only a moderate success, possibly because the public had a hard time accepting her drastic change of style. C.C. Catch's former label Hansa might have also contributed to that situation, by simultaneously issuing a compilation of her Bohlen-produced hits. Subsequently, C.C. Catch retired from the music business, became interested in meditation, and married a yoga teacher in London. However, she agreed to collaborate on the 1998 collection of her greatest hits and reportedly began working on a new album.

by Yuri German, allmusic
C.C. Catch - Fire Of Love 2001 (2001):

C.C. Catch - Fire Of Love 2001 (2001)

Tracklist:

01.Fire Of Love (Ravel Magic Fire Edit) (3:43)
02.Fire Of Love (Ravel Magic Fire Club Mix) (8:40)
03.Fire Of Love (3 South Cinematronics Meet Sea Side Karaoke Thrill Mix) (5:51)
04.Fire Of Love (Original '88 Version) (3:55)

Exact Audio Copy V0.99 prebeta 5 from 4. May 2009

Отчёт EAC об извлечении, выполненном 1. ноября 2009, 23:42

C.C. Catch / Fire Of Love 2001

Дисковод: ASUS DRW-2014S1T Adapter: 1 ID: 0

Режим чтения : Достоверность
Использование точного потока : Да
Отключение кэша аудио : Да
Использование указателей C2 : Нет

Коррекция смещения при чтении : 6
Способность читать области Lead-in и Lead-out : Нет
Заполнение пропущенных сэмплов тишиной : Да
Удаление блоков с тишиной в начале и конце : Нет
При вычислениях CRC использовались нулевые сэмплы : Да
Интерфейс : Установленный внешний ASPI-интерфейс

Выходной формат : Внутренние WAV-операции
Формат сэмплов : 44.100 Гц; 16 бит; стерео


TOC извлечённого CD

Трек | Старт | Длительность | Начальный сектор | Конечный сектор
––––––––––––––––––––––––––––––––––-
1 | 0:00.00 | 3:43.22 | 0 | 16746
2 | 3:43.22 | 8:40.24 | 16747 | 55770
3 | 12:23.46 | 5:50.50 | 55771 | 82070
4 | 18:14.21 | 3:54.70 | 82071 | 99690


Характеристики диапазона извлечения и сообщения об ошибках

Выбранный диапазон

Имя файла Z:\Temp\C.C. Catch - Fire Of Love 2001.wav

Пиковый уровень 97.9 %
Качество диапазона 100.0 %
CRC теста 27EEBAB7
CRC копии 27EEBAB7
Копирование… OK

Ошибок не произошло


AccurateRip: сводка

Трек 1 нет в базе данных
Трек 2 нет в базе данных
Трек 3 нет в базе данных
Трек 4 нет в базе данных

Ни одного трека нет в базе AccurateRip

Конец отчёта


[CUETools log; Date: 25.11.2017 1:03:04; Version: 2.1.5]
[AccurateRip ID: 0003e148-000faddb-2b053104] found.
Track [ CRC | V2 ] Status
01 [3dd45043|3c841f79] (0+0/2) No match
02 [e4d760ff|5d03c6e4] (0+0/2) No match
03 [2818059e|db24d977] (0+0/2) No match
04 [5eb9a746|bd0f9f3b] (0+0/2) No match
Offsetted by 6:
01 [70ab5bc2] (2/2) Accurately ripped
02 [da6fc225] (2/2) Accurately ripped
03 [e3935fdc] (2/2) Accurately ripped
04 [095ca71e] (2/2) Accurately ripped

Track Peak [ CRC32 ] [W/O NULL] [ LOG ]
– 97,9 [27EEBAB7] [77A6A180] CRC32
01 97,9 [3C051B85] [53AA23DA]
02 97,9 [99D832CE] [3F555BBF]
03 95,1 [1BF3B2C7] [9255A920]
04 97,7 [27248F4B] [ACE9DC49]


C.C. Catch - Fire Of Love 2001 (2001)

All thanks go to the original releaser

C.C.Catch or C.C.Catch in my Blog

Download C.C. Catch - Fire Of Love 2001 (2001):