Subcategories

Coco Lee - Just No Other Way (1999) {550 Music/Epic} **[RE-UP]**

Posted By: TestTickles
Coco Lee - Just No Other Way (1999) {550 Music/Epic} **[RE-UP]**

Coco Lee - Just No Other Way (1999) {550 Music/Epic}
EAC Rip | FLAC with CUE and log | scans | 316 mb
MP3 CBR 320kbps | RAR | 107 mb
Genre: R&B, soul, modern pop, rap

Just No Other Way is the 1999 debut English album by singer Coco Lee. While American in nature, her huge following is in Hong Kong and throughout Asia and this album was her first to appeal to an English speaking audience. This features the singles "Do You Want My Love", "Before I Fall In Love", "Wherever You Go" and a duet with Kelly Price called "Can't Get Over". This was released on 550 Music/Epic and was her only full-English disc.

Coco Lee - Just No Other Way (1999) {550 Music/Epic} **[RE-UP]**

1. Do You Want My Love (4:35)
2. Just No Other Way (To Love Me) (4:15)
3. Can't Get Over (4:06)
4. Did You Really Love Me (4:02)
5. Before I Fall In Love (3:44)
6. Wherever You Go (4:20)
7. I Will Be Your Friend (3:28)
8. All Tied Up In You (4:18)
9. Don't Want My Love (3:51)
10. Crazy Ridiculous (3:03)
11. Can We Talk About It (3:58)

Michelle Kelly-background vocals (track 1)
Anthony Cruz-rap (track 1)
Kelly Price-vocals, background vocals (track 3)
Nicky Richards-background vocals (track 9)
Dic Dasterly-rap (track 10)


Tracks 1 & 4 produced by Jimmy Greco & Ray Contreras
Tracks 2, 5 & 7 produced by Dane Deviller & Sean Hosein
Track 3 produced by Cutfather & Joe and Kelly Price
Track 6 produced by Ric Wake
Track 8 produced by Bradley Spalter
Track 9 produced by Frankie Knuckles
Track 9 lead vocals & background vocals produced by Danny Madden
Track 10 produced by The Specialists & Steve Rhythm
Track 11 produced by Erik "E-Smooth" Hicks, co-produced by Michael Mani

Mastered by Vlado Meller

Coco Lee - Just No Other Way (1999) {550 Music/Epic} **[RE-UP]**


Exact Audio Copy V1.1 from 23. June 2015

EAC extraction logfile from 10. February 2017, 4:18

Coco Lee / Just No Other Way

Used drive : TEAC DVD-ROM DV-28SW Adapter: 1 ID: 0

Read mode : Secure
Utilize accurate stream : Yes
Defeat audio cache : Yes
Make use of C2 pointers : No

Read offset correction : 6
Overread into Lead-In and Lead-Out : No
Fill up missing offset samples with silence : Yes
Delete leading and trailing silent blocks : No
Null samples used in CRC calculations : Yes
Used interface : Native Win32 interface for Win NT & 2000
Gap handling : Appended to previous track

Used output format : Internal WAV Routines
Sample format : 44.100 Hz; 16 Bit; Stereo


TOC of the extracted CD

Track | Start | Length | Start sector | End sector
––––––––––––––––––––––––––––-
1 | 0:00.00 | 4:35.50 | 0 | 20674
2 | 4:35.50 | 4:14.67 | 20675 | 39791
3 | 8:50.42 | 4:06.10 | 39792 | 58251
4 | 12:56.52 | 4:02.08 | 58252 | 76409
5 | 16:58.60 | 3:44.15 | 76410 | 93224
6 | 20:43.00 | 4:19.57 | 93225 | 112706
7 | 25:02.57 | 3:28.18 | 112707 | 128324
8 | 28:31.00 | 4:17.65 | 128325 | 147664
9 | 32:48.65 | 3:50.60 | 147665 | 164974
10 | 36:39.50 | 3:02.60 | 164975 | 178684
11 | 39:42.35 | 3:58.42 | 178685 | 196576


Track 1

Filename C:\My Documents\My FLAC\Coco Lee - Just No Other Way (1999) [FLAC] {550 Music, Epic}\01 - Do You Want My Love.wav

Pre-gap length 0:00:02.00

Peak level 96.6 %
Extraction speed 2.9 X
Track quality 100.0 %
Test CRC ABDC7293
Copy CRC ABDC7293
Accurately ripped (confidence 8) [9B61D695] (AR v1)
Copy OK

Track 2

Filename C:\My Documents\My FLAC\Coco Lee - Just No Other Way (1999) [FLAC] {550 Music, Epic}\02 - Just No Other Way (To Love Me).wav

Peak level 97.7 %
Extraction speed 3.2 X
Track quality 100.0 %
Test CRC E607E0BF
Copy CRC E607E0BF
Accurately ripped (confidence 8) [E79871D0] (AR v1)
Copy OK

Track 3

Filename C:\My Documents\My FLAC\Coco Lee - Just No Other Way (1999) [FLAC] {550 Music, Epic}\03 - Can't Get Over.wav

Peak level 98.8 %
Extraction speed 3.5 X
Track quality 100.0 %
Test CRC E54D4223
Copy CRC E54D4223
Accurately ripped (confidence 7) [378C405F] (AR v1)
Copy OK

Track 4

Filename C:\My Documents\My FLAC\Coco Lee - Just No Other Way (1999) [FLAC] {550 Music, Epic}\04 - Did You Really Love Me.wav

Peak level 98.8 %
Extraction speed 3.7 X
Track quality 100.0 %
Test CRC 9238CE2E
Copy CRC 9238CE2E
Accurately ripped (confidence 7) [D9419EB8] (AR v1)
Copy OK

Track 5

Filename C:\My Documents\My FLAC\Coco Lee - Just No Other Way (1999) [FLAC] {550 Music, Epic}\05 - Before I Fall In Love.wav

Peak level 97.7 %
Extraction speed 3.9 X
Track quality 100.0 %
Test CRC 8960B8A1
Copy CRC 8960B8A1
Accurately ripped (confidence 7) [1F63CE4E] (AR v1)
Copy OK

Track 6

Filename C:\My Documents\My FLAC\Coco Lee - Just No Other Way (1999) [FLAC] {550 Music, Epic}\06 - Wherever You Go.wav

Peak level 99.8 %
Extraction speed 4.2 X
Track quality 100.0 %
Test CRC 15485D33
Copy CRC 15485D33
Accurately ripped (confidence 7) [DACBC1EF] (AR v1)
Copy OK

Track 7

Filename C:\My Documents\My FLAC\Coco Lee - Just No Other Way (1999) [FLAC] {550 Music, Epic}\07 - I Will Be Your Friend.wav

Peak level 96.6 %
Extraction speed 4.2 X
Track quality 100.0 %
Test CRC 8771728C
Copy CRC 8771728C
Accurately ripped (confidence 8) [ABD695D3] (AR v1)
Copy OK

Track 8

Filename C:\My Documents\My FLAC\Coco Lee - Just No Other Way (1999) [FLAC] {550 Music, Epic}\08 - All Tied Up In You.wav

Peak level 98.8 %
Extraction speed 4.5 X
Track quality 100.0 %
Test CRC 0A0867FD
Copy CRC 0A0867FD
Accurately ripped (confidence 8) [2D7A36FA] (AR v1)
Copy OK

Track 9

Filename C:\My Documents\My FLAC\Coco Lee - Just No Other Way (1999) [FLAC] {550 Music, Epic}\09 - Don't You Want My Love.wav

Peak level 98.8 %
Extraction speed 3.9 X
Track quality 100.0 %
Test CRC 1F92807B
Copy CRC 1F92807B
Accurately ripped (confidence 7) [52489816] (AR v1)
Copy OK

Track 10

Filename C:\My Documents\My FLAC\Coco Lee - Just No Other Way (1999) [FLAC] {550 Music, Epic}\10 - Crazy Ridiculous.wav

Peak level 98.8 %
Extraction speed 3.8 X
Track quality 100.0 %
Test CRC 3D507BEE
Copy CRC 3D507BEE
Accurately ripped (confidence 6) [46392320] (AR v1)
Copy OK

Track 11

Filename C:\My Documents\My FLAC\Coco Lee - Just No Other Way (1999) [FLAC] {550 Music, Epic}\11 - Can We Talk About It.wav

Peak level 96.6 %
Extraction speed 4.8 X
Track quality 100.0 %
Test CRC 0458A50A
Copy CRC 0458A50A
Accurately ripped (confidence 5) [105575EE] (AR v1)
Copy OK


All tracks accurately ripped

No errors occurred

End of status report

–– CUETools DB Plugin V2.1.6

[CTDB TOCID: E27tALY7nX2lgSCB7vcFg0S3qEA-] found
Submit result: E27tALY7nX2lgSCB7vcFg0S3qEA- has been confirmed
Track | CTDB Status
1 | (11/11) Accurately ripped
2 | (11/11) Accurately ripped
3 | (11/11) Accurately ripped
4 | (11/11) Accurately ripped
5 | (11/11) Accurately ripped
6 | (11/11) Accurately ripped
7 | (11/11) Accurately ripped
8 | (11/11) Accurately ripped
9 | (11/11) Accurately ripped
10 | (11/11) Accurately ripped
11 | (11/11) Accurately ripped


==== Log checksum 1CC527F8DE5167E030B0E722EB39DF2F672446042094F5783FBA21F751D0F391 ====


Coco Lee - Just No Other Way (1999) {550 Music/Epic} **[RE-UP]**