Subcategories

Cecil Taylor - Love For Sale (1959) {1998 Blue Note}

Posted By: TestTickles
Cecil Taylor - Love For Sale (1959) {1998 Blue Note}

Cecil Taylor - Love For Sale (1959) {1998 Blue Note}
EAC Rip | FLAC with CUE and log | scans | 288 mb
MP3 CBR 320kbps | RAR | 131 mb
Genre: jazz

Love For Sale is the 1959 album by Cecil Taylor, originally released on United Artists as being by Cecil Taylor Trio & Quintet. This pressing was remastered and reissued in 1998 by Blue Note.

Cecil Taylor - Love For Sale (1959) {1998 Blue Note}

1. Get Out Of Town (9:12)
2. I Love Paris (5:11)
3. Love For Sale (8:15)
4. Little Lees (Louise) (9:04)
5. Matie's Trophies (Motystrophe) (10;13)
6. Carol/Three Points (Bonus Track) (8:16)

Cecil Taylor-piano
Buell Neidlinger-bass
Dennis Charles-drums
Ted Curson-trumpet (tracks 4-6)
Bill Barron-tenor saxohone (tracks 4-6)

Produced by Tom Wilson
Engineered by Lewis Merritt
Recorded on 15 April, 1959
Remastered by Ron McMaster

EAC extraction logfile from 11. May 2006, 6:24 for CD
Cecil Taylor / Love For Sale

Used drive : PLEXTOR CD-ROM PX-40TS Adapter: 2 ID: 6
Read mode : Secure with NO C2, accurate stream, disable cache
Read offset correction : 676
Overread into Lead-In and Lead-Out : No

Used output format : Internal WAV Routines
44.100 Hz; 16 Bit; Stereo

Other options :
Fill up missing offset samples with silence : Yes
Delete leading and trailing silent blocks : No
Installed external ASPI interface


Track 1
Filename C:\FLAC\Cecil Taylor - Love For Sale (1959) [FLAC] {1998 Blue Note}\01 - Get Out Of Town.wav

Pre-gap length 0:00:02.00

Peak level 96.1 %
Track quality 100.0 %
Test CRC E662593B
Copy CRC E662593B
Copy OK

Track 2
Filename C:\FLAC\Cecil Taylor - Love For Sale (1959) [FLAC] {1998 Blue Note}\02 - I Love Paris.wav

Pre-gap length 0:00:02.25

Peak level 98.8 %
Track quality 100.0 %
Test CRC D56B7669
Copy CRC D56B7669
Copy OK

Track 3
Filename C:\FLAC\Cecil Taylor - Love For Sale (1959) [FLAC] {1998 Blue Note}\03 - Love For Sale.wav

Pre-gap length 0:00:02.34

Peak level 84.3 %
Track quality 100.0 %
Test CRC DA19CD2B
Copy CRC DA19CD2B
Copy OK

Track 4
Filename C:\FLAC\Cecil Taylor - Love For Sale (1959) [FLAC] {1998 Blue Note}\04 - Little Lees (Louise).wav

Pre-gap length 0:00:01.81

Peak level 97.6 %
Track quality 100.0 %
Test CRC 64814536
Copy CRC 64814536
Copy OK

Track 5
Filename C:\FLAC\Cecil Taylor - Love For Sale (1959) [FLAC] {1998 Blue Note}\05 - Matie's Trophies (Motystrophe).wav

Pre-gap length 0:00:02.58

Peak level 97.5 %
Track quality 99.9 %
Test CRC D37FB7C5
Copy CRC D37FB7C5
Copy OK

Track 6
Filename C:\FLAC\Cecil Taylor - Love For Sale (1959) [FLAC] {1998 Blue Note}\06 - Carol - Three Points.wav

Pre-gap length 0:00:02.20

Peak level 98.8 %
Track quality 100.0 %
Test CRC 369EAF1E
Copy CRC 369EAF1E
Copy OK

No errors occured


End of status report


Cecil Taylor - Love For Sale (1959) {1998 Blue Note}


Thank you to the original uploader.