Subcategories

Case - Touch Me Tease Me (CD5) (1996)

Posted By: TestTickles
Case - Touch Me Tease Me (CD5) (1996)

Case - Touch Me Tease Me (CD5) (1996)
EAC Rip | FLAC with CUE and log | scans | 93 mb
MP3 CBR 320kbps | RAR | 31 mb
Genre: R&B, soul, hip-hop, rap

Touch Me Tease Me is a single released in support of the 1996 remake of The Nutty Professor. The song by Case featured two rap verses from Foxy Brown and background vocals from single Mary J. Blige. It became the only big hit Case had.

Case - Touch Me Tease Me (CD5) (1996)

1. Touch Me Tease Me (Radio Edit Without Rap)
2. Touch Me Tease Me (LP Version)
3. Touch Me Tease Me (Instrumental)

Case - Touch Me Tease Me (CD5) (1996)


Exact Audio Copy V1.1 from 23. June 2015

EAC extraction logfile from 28. March 2016, 16:39

Case / Touch Me Tease Me (CD5)

Used drive : TEAC DVD-ROM DV-28SW Adapter: 1 ID: 0

Read mode : Secure
Utilize accurate stream : Yes
Defeat audio cache : Yes
Make use of C2 pointers : No

Read offset correction : 6
Overread into Lead-In and Lead-Out : No
Fill up missing offset samples with silence : Yes
Delete leading and trailing silent blocks : No
Null samples used in CRC calculations : Yes
Used interface : Native Win32 interface for Win NT & 2000
Gap handling : Left out

Used output format : Internal WAV Routines
Sample format : 44.100 Hz; 16 Bit; Stereo


TOC of the extracted CD

Track | Start | Length | Start sector | End sector
––––––––––––––––––––––––––––-
1 | 0:00.32 | 3:55.00 | 32 | 17656
2 | 3:55.32 | 4:29.38 | 17657 | 37869
3 | 8:24.70 | 5:04.42 | 37870 | 60711


Track 1

Filename C:\My Documents\My FLAC\Case - Touch Me Tease Me (CD5) (1996) [FLAC]\01 - Touch Me Tease Me (Radio Edit Without Rap).wav

Pre-gap length 0:00:02.32

Peak level 97.7 %
Extraction speed 2.8 X
Track quality 100.0 %
Test CRC E1091FF3
Copy CRC E1091FF3
Track not fully ripped for AccurateRip lookup
Copy OK

Track 2

Filename C:\My Documents\My FLAC\Case - Touch Me Tease Me (CD5) (1996) [FLAC]\02 - Touch Me Tease Me (LP Version).wav

Pre-gap length 0:00:01.62

Peak level 97.7 %
Extraction speed 2.5 X
Track quality 99.9 %
Test CRC 62D80D78
Copy CRC 62D80D78
Track not fully ripped for AccurateRip lookup
Copy OK

Track 3

Filename C:\My Documents\My FLAC\Case - Touch Me Tease Me (CD5) (1996) [FLAC]\03 - Touch Me Tease Me (Instrumental).wav

Pre-gap length 0:00:01.43

Peak level 97.7 %
Extraction speed 3.6 X
Track quality 100.0 %
Test CRC F1313DE6
Copy CRC F1313DE6
Accurately ripped (confidence 1) [7CE3CAFF] (AR v1)
Copy OK


1 track(s) accurately ripped
2 track(s) not fully ripped for AccurateRip lookup

Some tracks could not be verified as accurate

No errors occurred

End of status report

==== Log checksum 8AECDA0751483E84C61635CE663D67F86C582D60CD0755387D4F5AFE29CC6BB5 ====
NITROFLARE (FLAC)
NITROFLARE (MP3)