Subcategories

Captor - Lay It To Rest (1993) {Eurorecords}

Posted By: TestTickles
Captor - Lay It To Rest (1993) {Eurorecords}

Captor - Lay It To Rest (1993) {Eurorecords}
EAC Rip | FLAC with CUE and LOG | scans | 414 mb
MP3 CBR 320 kbps | RAR | 153 mb
Genre: thrash metal, death metal

Lay It To Rest is the 1993 album by Sweden's Captor. This was released by Eurorecords Records.

Captor - Lay It To Rest (1993) {Eurorecords}

01. Intro
02. Traumatic Depressive Lunacy
03. Utilized
04. Aspects Of Positive Thinking
05. Jaws Of Lust
06. Domination
07. Let Revolution Speak
08. Possessed
09. Depression
10. Trail Of Death
11. Lay It To Rest
12. Fundamental Influence

Exact Audio Copy V1.3 from 2. September 2016

EAC extraction logfile from 09. February 2019, 10:20

Captor / Lay It To Rest

Used drive : PLEXTOR DVDR PX-L890SA Adapter: 1 ID: 0

Read mode : Secure
Utilize accurate stream : Yes
Defeat audio cache : Yes
Make use of C2 pointers : No

Read offset correction : 6
Overread into Lead-In and Lead-Out : No
Fill up missing offset samples with silence : Yes
Delete leading and trailing silent blocks : No
Null samples used in CRC calculations : Yes
Used interface : Native Win32 interface for Win NT & 2000

Used output format : User Defined Encoder
Selected bitrate : 896 kBit/s
Quality : High
Add ID3 tag : No
Command line compressor : C:\Program Files (x86)\Exact Audio Copy\FLAC\flac.exe
Additional command line options : -6 -V -T "ARTIST=%artist%" -T "TITLE=%title%" -T "ALBUM=%albumtitle%" -T "DATE=%year%" -T "TRACKNUMBER=%tracknr%" -T "GENRE=%genre%" -T "COMMENT=%comment%" -T "BAND=%albuminterpret%" -T "ALBUMARTIST=%albuminterpret%" -T "COMPOSER=%composer%" %haslyrics%–tag-from-file=LYRICS="%lyricsfile%"%haslyrics% -T "DISCNUMBER=%cdnumber%" -T "TOTALDISCS=%totalcds%" -T "TOTALTRACKS=%numtracks%" %hascover%–picture="%coverfile%"%hascover% %source% -o %dest%


TOC of the extracted CD

Track | Start | Length | Start sector | End sector
––––––––––––––––––––––––––––-
1 | 0:00.32 | 1:06.30 | 32 | 5011
2 | 1:06.62 | 5:07.18 | 5012 | 28054
3 | 6:14.05 | 3:05.02 | 28055 | 41931
4 | 9:19.07 | 5:24.45 | 41932 | 66276
5 | 14:43.52 | 4:17.15 | 66277 | 85566
6 | 19:00.67 | 4:22.70 | 85567 | 105286
7 | 23:23.62 | 5:24.10 | 105287 | 129596
8 | 28:47.72 | 4:39.63 | 129597 | 150584
9 | 33:27.60 | 3:52.10 | 150585 | 167994
10 | 37:19.70 | 5:55.70 | 167995 | 194689
11 | 43:15.65 | 5:12.12 | 194690 | 218101
12 | 48:28.02 | 8:22.73 | 218102 | 255824


Range status and errors

Selected range

Filename C:\cuntfist\FLAC\Captor - Lay It To Rest (1993) [FLAC] {Eurorecords}\Captor - Lay It To Rest.wav

Peak level 95.0 %
Extraction speed 5.7 X
Range quality 99.9 %
Test CRC E9FBA01E
Copy CRC E9FBA01E
Copy OK

No errors occurred


AccurateRip summary

Track 1 accurately ripped (confidence 2) [15DE0730] (AR v2)
Track 2 accurately ripped (confidence 2) [CB523EBC] (AR v2)
Track 3 accurately ripped (confidence 2) [95DF4E9B] (AR v2)
Track 4 accurately ripped (confidence 2) [0CB291A8] (AR v2)
Track 5 accurately ripped (confidence 2) [FC7CE113] (AR v2)
Track 6 accurately ripped (confidence 2) [D4ED1D82] (AR v2)
Track 7 accurately ripped (confidence 2) [2832CA20] (AR v2)
Track 8 accurately ripped (confidence 2) [214ED5D6] (AR v2)
Track 9 accurately ripped (confidence 2) [5B2E2D8D] (AR v2)
Track 10 accurately ripped (confidence 2) [8C923C61] (AR v2)
Track 11 accurately ripped (confidence 2) [CCE8D8B7] (AR v2)
Track 12 accurately ripped (confidence 2) [068C0FCD] (AR v2)

All tracks accurately ripped

End of status report

==== Log checksum 5DB11EFE5D6DD8F8226E52A90EF65058DFBD63454FDBB79FD4DEDFA49B480C1D ====


Captor - Lay It To Rest (1993) {Eurorecords}


Thank you to the original uploader.