Subcategories

C.J. Chenier - Too Much Fun (1995)

Posted By: Designol
C.J. Chenier - Too Much Fun (1995)

C.J. Chenier - Too Much Fun (1995)
EAC | FLAC | Image (Cue&Log) ~ 335 Mb | Mp3 (CBR320) ~ 111 Mb | Scans ~ 107 Mb
Zydeco, Cajun, Blues, R&B | Label: Alligator | # ALCD 4830 | Time: 00:48:19

From the title of this CD, the listener can guess where zydeco artist C.J. Chenier is going with this one. Recorded in 1995, Too Much Fun features a big sound filled with multiple electric guitars, saxophones, trumpet, and percussion instruments, along with the more traditional accordion and rub boards that distinguish the genre of zydeco. C.J. Chenier contributes to the party spirit by playing the accordion, alto saxophone, and providing vocals on the CD. The rest of the Red Hot Louisiana Band gears up for an album of party music meant for dancing. It would be unthinkable in the zydeco tradition to have too much fun without dancing being on the agenda, so dance tunes rule the record. Especially hot dance tunes include "Zydeco Cha Cha," "Louisiana Two Step," "Squeaky Wheel," and "Give Me Some of That," along with the title cut. There is a humorous and admiring nod to the ladies in "Man Smart (Woman Smarter)," as well as some gritty blues on "Louisiana Down Home Blues" and "Lost in the Shuffle." The CD goes out with one last lively dance number, "Louisiana Two-Step," so that no one can ever say that C.J. Chenier kept the dancers from having too much fun.

Review by Rose of Sharon Witmer, Allmusic.com

C.J. Chenier - Too Much Fun (1995)



Tracklist:

01. Man Smart, Woman Smarter (3:02)
02. Bad Luck (4:08)
03. Richest Man (4:31)
04. Too Much Fun (3:19)
05. Give Me Some of That (2:59)
06. Louisiana Down Home Blues (3:55)
07. Zydeco Cha Cha (2:59)
08. Lost in the Shuffle (3:49)
09. Got You on My Mind (5:44)
10. Squeaky Wheel (3:16)
11. I'm Not Guilty (3:29)
12. You Used to Call Me (3:58)
13. Louisiana Two Step (3:13)


Exact Audio Copy V1.0 beta 6 from 9. April 2015

EAC extraction logfile from 5. January 2017, 12:33

C. J. Chenier / Too Much Fun

Used drive : PLEXTOR DVDR PX-891SA Adapter: 0 ID: 2

Read mode : Secure
Utilize accurate stream : Yes
Defeat audio cache : Yes
Make use of C2 pointers : No

Read offset correction : 6
Overread into Lead-In and Lead-Out : No
Fill up missing offset samples with silence : Yes
Delete leading and trailing silent blocks : No
Null samples used in CRC calculations : Yes
Used interface : Installed external ASPI interface

Used output format : User Defined Encoder
Selected bitrate : 320 kBit/s
Quality : High
Add ID3 tag : No
Command line compressor : C:\Program Files\Exact Audio Copy 1.0 b6\Exact Audio Copy\Flac\flac.exe
Additional command line options : -V -8 -T "Date=%year%" -T "Genre=%genre%" %source%


TOC of the extracted CD

Track | Start | Length | Start sector | End sector
––––––––––––––––––––––––––––-
1 | 0:00.00 | 3:01.62 | 0 | 13636
2 | 3:01.62 | 4:07.50 | 13637 | 32211
3 | 7:09.37 | 4:30.45 | 32212 | 52506
4 | 11:40.07 | 3:18.48 | 52507 | 67404
5 | 14:58.55 | 2:58.60 | 67405 | 80814
6 | 17:57.40 | 3:55.05 | 80815 | 98444
7 | 21:52.45 | 2:58.42 | 98445 | 111836
8 | 24:51.12 | 3:48.45 | 111837 | 128981
9 | 28:39.57 | 5:43.65 | 128982 | 154771
10 | 34:23.47 | 3:16.10 | 154772 | 169481
11 | 37:39.57 | 3:28.70 | 169482 | 185151
12 | 41:08.52 | 3:57.40 | 185152 | 202966
13 | 45:06.17 | 3:13.10 | 202967 | 217451


Range status and errors

Selected range

Filename L:\Lossless Temp\C.J.Chenier\1995. C.J. Chenier - Too Much Fun (1995 Alligator Records, ALCD 4830, USA)\C. J. Chenier - Too Much Fun.wav

Peak level 100.0 %
Extraction speed 7.7 X
Range quality 99.9 %
Test CRC C8488AE9
Copy CRC C8488AE9
Copy OK

No errors occurred


AccurateRip summary

Track 1 accurately ripped (confidence 11) [3561934D] (AR v2)
Track 2 accurately ripped (confidence 11) [182496DF] (AR v2)
Track 3 accurately ripped (confidence 11) [E637D26F] (AR v2)
Track 4 accurately ripped (confidence 11) [FCFAAB6C] (AR v2)
Track 5 accurately ripped (confidence 11) [0BDEEF7C] (AR v2)
Track 6 accurately ripped (confidence 11) [EAE51DA2] (AR v2)
Track 7 accurately ripped (confidence 11) [8651677B] (AR v2)
Track 8 accurately ripped (confidence 11) [9B962D60] (AR v2)
Track 9 accurately ripped (confidence 11) [B330908B] (AR v2)
Track 10 accurately ripped (confidence 11) [E9A91548] (AR v2)
Track 11 accurately ripped (confidence 11) [DDD4FF97] (AR v2)
Track 12 accurately ripped (confidence 11) [40941FB5] (AR v2)
Track 13 accurately ripped (confidence 11) [70E9DB90] (AR v2)

All tracks accurately ripped

End of status report

–– CUETools DB Plugin V2.1.6

[CTDB TOCID: twfBIetQRTKc7JkytYV9kbLLP1U-] found
Submit result: twfBIetQRTKc7JkytYV9kbLLP1U- has been confirmed
Track | CTDB Status
1 | (16/16) Accurately ripped
2 | (16/16) Accurately ripped
3 | (16/16) Accurately ripped
4 | (16/16) Accurately ripped
5 | (15/16) Accurately ripped
6 | (15/16) Accurately ripped
7 | (16/16) Accurately ripped
8 | (16/16) Accurately ripped
9 | (16/16) Accurately ripped
10 | (16/16) Accurately ripped
11 | (16/16) Accurately ripped
12 | (16/16) Accurately ripped
13 | (16/16) Accurately ripped


==== Log checksum E2DE6D1FC1DE3D5F16E42679DB7B2EA357CF3AF6FF88DB89F958AE6CF4E70A0C ====

foobar2000 1.2 / Dynamic Range Meter 1.1.1
log date: 2018-02-02 00:44:17

––––––––––––––––––––––––––––––––––––––––
Analyzed: C. J. Chenier / Too Much Fun
––––––––––––––––––––––––––––––––––––––––

DR Peak RMS Duration Track
––––––––––––––––––––––––––––––––––––––––
DR13 0.00 dB -14.92 dB 3:02 01-Man Smart, Woman Smarter
DR12 -1.01 dB -14.76 dB 4:08 02-Bad Luck
DR14 -0.64 dB -17.09 dB 4:31 03-Richest Man
DR14 -0.45 dB -15.53 dB 3:19 04-Too Much Fun
DR15 -0.51 dB -16.49 dB 2:59 05-Give Me Some of That
DR14 0.00 dB -15.74 dB 3:55 06-Louisiana Down Home Blues
DR14 0.00 dB -15.73 dB 2:59 07-Zydeco Cha Cha
DR14 0.00 dB -15.55 dB 3:49 08-Lost in the Shuffle
DR14 0.00 dB -15.80 dB 5:44 09-Got You on My Mind
DR13 -0.79 dB -14.83 dB 3:16 10-Squeaky Wheel
DR15 -0.39 dB -16.90 dB 3:29 11-I'm Not Guilty
DR13 -0.38 dB -15.51 dB 3:58 12-You Used to Call Me
DR13 -0.87 dB -16.08 dB 3:13 13-Louisiana Two Step
––––––––––––––––––––––––––––––––––––––––

Number of tracks: 13
Official DR value: DR14

Samplerate: 44100 Hz
Channels: 2
Bits per sample: 16
Bitrate: 967 kbps
Codec: FLAC
================================================================================

C.J. Chenier - Too Much Fun (1995)

C.J. Chenier - Too Much Fun (1995)

All thanks to original releaser - Swamp Fox

More interesting music in My Blog