CKY - The Phoenix (2017)

Posted By: SERTiL
CKY - The Phoenix (2017)

CKY - The Phoenix
EAC Rip | FLAC (tracks)+cue, log, m3u, front cover | 30:42 min | 228 MB
Label: Entertainment One ‎– EOM-CD-8946 | Tracks: 08 | Rls.date: 2017
Hard Rock, Alternative Metal

Once upon a time, CKY burned it all down, with a raucous, anarchic, hard rock sound soaked in the skate-punk culture that birthed them and a hard-partying lifestyle onstage and off that decimated relationships and reputations in its wake. Now, CKY rises from the ashes of the aftermath with The Phoenix, a bold mission statement that hoists the flag high for big, raw, authentic, earth shaking rock n’ roll, liberated from useless pretense. The Phoenix touches on anger, revenge, good versus evil, desperation, recovery, growth, knowledge, survival, enemies, friends, and more. There’s heavy, dark, signature CKY grooves, “fun shit,” “fancy shit,” driving and almost danceable stuff, big melodies, total ear candy, immense diversity… There are even parts that sound like maybe Quincy Jones was given the keys to Rancho De La Luna and just ran amok with the dudes in CKY.

TRACKLIST
1. Replaceable (03:10)
2. Days of Self Destruction (04:01)
3. Unknown Enemy (03:44)
4. Head for a Breakdown (04:20)
5. The Other Ones (03:15)
6. Wiping Off the Dead (03:59)
7. Lies from You (03:42)
8. Better Than Get Even (04:41)

Exact Audio Copy V1.3 from 2. September 2016

EAC extraction logfile from 30. June 2017, 14:15

CKY / The Phoenix

Used drive : ASUS DRW-24F1ST a Adapter: 1 ID: 0

Read mode : Secure
Utilize accurate stream : Yes
Defeat audio cache : Yes
Make use of C2 pointers : No

Read offset correction : 6
Overread into Lead-In and Lead-Out : No
Fill up missing offset samples with silence : Yes
Delete leading and trailing silent blocks : No
Null samples used in CRC calculations : Yes
Used interface : Native Win32 interface for Win NT & 2000
Gap handling : Appended to previous track

Used output format : User Defined Encoder
Selected bitrate : 1024 kBit/s
Quality : High
Add ID3 tag : No
Command line compressor : C:\Audio\Codecs\FLAC\flac.exe
Additional command line options : -8 -e -p -V -T "ARTIST=%artist%" -T "TITLE=%title%" -T "ALBUM=%albumtitle%" -T "DATE=%year%" -T "TRACKNUMBER=%tracknr%" -T "GENRE=%genre%" -T "PERFORMER=%albuminterpret%" -T "COMPOSER=%composer%" %haslyrics%–tag-from-file=LYRICS="%lyricsfile%"%haslyrics% -T "ALBUMARTIST=%albumartist%" -T "DISCNUMBER=%cdnumber%" -T "TOTALDISCS=%totalcds%" -T "TOTALTRACKS=%numtracks%" -T "COMMENT=%comment%" %source% -o %dest%


TOC of the extracted CD

Track | Start | Length | Start sector | End sector
––––––––––––––––––––––––––––-
1 | 0:00.00 | 3:10.24 | 0 | 14273
2 | 3:10.24 | 4:01.44 | 14274 | 32392
3 | 7:11.68 | 3:44.33 | 32393 | 49225
4 | 10:56.26 | 4:20.17 | 49226 | 68742
5 | 15:16.43 | 3:15.67 | 68743 | 83434
6 | 18:32.35 | 3:59.53 | 83435 | 101412
7 | 22:32.13 | 3:32.03 | 101413 | 117315
8 | 26:04.16 | 4:41.21 | 117316 | 138411


Track 1

Filename C:\Audio\Temp\CKY - The Phoenix (2017) [FLAC] {SPV 284412 CD}\01 - Replaceable.wav

Pre-gap length 0:00:02.00

Peak level 98.8 %
Extraction speed 1.7 X
Track quality 100.0 %
Test CRC CCC1F9B8
Copy CRC CCC1F9B8
Track not present in AccurateRip database
Copy OK

Track 2

Filename C:\Audio\Temp\CKY - The Phoenix (2017) [FLAC] {SPV 284412 CD}\02 - Days of Self Destruction.wav

Peak level 98.8 %
Extraction speed 1.9 X
Track quality 100.0 %
Test CRC A1144056
Copy CRC A1144056
Track not present in AccurateRip database
Copy OK

Track 3

Filename C:\Audio\Temp\CKY - The Phoenix (2017) [FLAC] {SPV 284412 CD}\03 - Unknown Enemy.wav

Peak level 98.8 %
Extraction speed 1.8 X
Track quality 99.9 %
Test CRC 158982E6
Copy CRC 158982E6
Track not present in AccurateRip database
Copy OK

Track 4

Filename C:\Audio\Temp\CKY - The Phoenix (2017) [FLAC] {SPV 284412 CD}\04 - Head for a Breakdown.wav

Peak level 98.8 %
Extraction speed 2.3 X
Track quality 100.0 %
Test CRC 88E23E20
Copy CRC 88E23E20
Track not present in AccurateRip database
Copy OK

Track 5

Filename C:\Audio\Temp\CKY - The Phoenix (2017) [FLAC] {SPV 284412 CD}\05 - The Other Ones.wav

Peak level 98.8 %
Extraction speed 1.9 X
Track quality 99.9 %
Test CRC 152F87E6
Copy CRC 152F87E6
Track not present in AccurateRip database
Copy OK

Track 6

Filename C:\Audio\Temp\CKY - The Phoenix (2017) [FLAC] {SPV 284412 CD}\06 - Wiping Off the Dead.wav

Peak level 98.8 %
Extraction speed 2.1 X
Track quality 99.9 %
Test CRC B2407066
Copy CRC B2407066
Track not present in AccurateRip database
Copy OK

Track 7

Filename C:\Audio\Temp\CKY - The Phoenix (2017) [FLAC] {SPV 284412 CD}\07 - Lies From You.wav

Peak level 98.8 %
Extraction speed 2.6 X
Track quality 100.0 %
Test CRC E375C9C4
Copy CRC E375C9C4
Track not present in AccurateRip database
Copy OK

Track 8

Filename C:\Audio\Temp\CKY - The Phoenix (2017) [FLAC] {SPV 284412 CD}\08 - Better Than Get Even.wav

Peak level 98.8 %
Extraction speed 2.8 X
Track quality 100.0 %
Test CRC 4B6289DE
Copy CRC 4B6289DE
Track not present in AccurateRip database
Copy OK


None of the tracks are present in the AccurateRip database

No errors occurred

End of status report

–– CUETools DB Plugin V2.1.6

[CTDB TOCID: ImyUVR2pctlDXKYXjxv1Ql.1IT4-] found
Submit result: ImyUVR2pctlDXKYXjxv1Ql.1IT4- has been confirmed
Track | CTDB Status
1 | (1/1) Accurately ripped
2 | (1/1) Accurately ripped
3 | (1/1) Accurately ripped
4 | (1/1) Accurately ripped
5 | (1/1) Accurately ripped
6 | (1/1) Accurately ripped
7 | (1/1) Accurately ripped
8 | (1/1) Accurately ripped


==== Log checksum 5E3DAB24DE4F5CA179C2455238C276BE92B75DE6608909B3B00B758696549F83 ====


Thanks to the Original customer.