Subcategories

Clock DVA - Black Words On White Paper (EP) (1992) {Contempo}

Posted By: TestTickles
Clock DVA - Black Words On White Paper (EP) (1992) {Contempo}

Clock DVA - Black Words On White Paper (EP) (1992) {Contempo}
EAC Rip | FLAC with CUE and log | scans | 133 mb
MP3 CBR 320 kbps | RAR | 49 mb
Genre: industrial

Black Words On White Paper is a 1992 EP by Clock DVA. This was part of a book for the group and was released by Contempo.

Clock DVA - Black Words On White Paper (EP) (1992) {Contempo}

1. 1.23 (1:23)
2. 7 DC (3:44)
3. Otto M (13:29)
4. Alien Tapes (3:29)

Exact Audio Copy V1.0 beta 3 from 29. August 2011

EAC extraction logfile from 13. March 2012, 11:22

Clock DVA / Black Words On White Paper (EP)

Used drive : PLEXTOR DVDR PX-760A Adapter: 4 ID: 0

Read mode : Secure
Utilize accurate stream : Yes
Defeat audio cache : Yes
Make use of C2 pointers : No

Read offset correction : 30
Overread into Lead-In and Lead-Out : Yes
Fill up missing offset samples with silence : Yes
Delete leading and trailing silent blocks : No
Null samples used in CRC calculations : Yes
Used interface : Installed external ASPI interface

Used output format : Internal WAV Routines
Sample format : 44.100 Hz; 16 Bit; Stereo

TOC of the extracted CD

Track | Start | Length | Start sector | End sector
––––––––––––––––––––––––––––-
1 | 0:00.00 | 1:23.65 | 0 | 6289
2 | 1:23.65 | 3:44.42 | 6290 | 23131
3 | 5:08.32 | 13:28.60 | 23132 | 83791
4 | 18:37.17 | 3:27.15 | 83792 | 99331

Range status and errors

Selected range

Filename C:\cuntfist\FLAC\Clock DVA - Black Words On White Paper (EP) (1992) [FLAC] {Contempo}\Clock DVA - Black Words On White Paper (EP) (1992).wav

Peak level 100.0 %
Extraction speed 5.6 X
Range quality 100.0 %
Test CRC 51F18A00
Copy CRC 51F18A00
Copy OK

No errors occurred

AccurateRip summary

Track 1 accurately ripped (confidence 2) [748AA409] (AR v1)
Track 2 accurately ripped (confidence 2) [5EDF2414] (AR v1)
Track 3 accurately ripped (confidence 2) [352722E4] (AR v1)
Track 4 accurately ripped (confidence 2) [783596C0] (AR v1)

All tracks accurately ripped

End of status report

==== Log checksum 998176EA0EECAE3A14F29BD33BACD260563FBC5EF78DDE9C5F9851C34AAB0B87 ====


Clock DVA - Black Words On White Paper (EP) (1992) {Contempo}


Thank you to the original uploader.