Subcategories

Miklos Spanyi - C.P.E. Bach: The Solo Keyboard Music, Vol. 33 (2017)

Posted By: SERTiL
Miklos Spanyi - C.P.E. Bach: The Solo Keyboard Music, Vol. 33 (2017)

Miklos Spanyi - C.P.E. Bach: The Solo Keyboard Music, Vol. 33
Classical | WEB FLAC (tracks) & d. booklet | 69:51 min | 291 MB
Label: BIS | Tracks: 13 | Rls.date: 2017

Issued between 1779 and 1787, the six collections of sonatas, rondos, and fantasias “für Kenner und Liebhaber” constitute Carl Philipp Emanuel Bach’s largest-scale publishing venture. Aimed at ‘Connaisseurs and Amateurs’, the first collection was a retrospective selection of six sonatas but when this became a commercial success Bach expanded and varied the scheme, adding rondos (a recently popular form) for the second and third collection and, in the final three collections, samples of his free fantasies.

On the previous two discs in his acclaimed series, Miklós Spányi combined pieces from Collection 1 and 2, performing them on the clavichord (Volume 31) and the tangent piano (Volume 32). For the present disc, Spányi has chosen to remain with the tangent piano, an early form of the piano with strings that are struck by small wooden slips (‘tangents’). The basic sound of the instrument is reminiscent of the harpsichord, but this can be modified in a number of ways through the use of various devices.

In Collection 3, Bach provided variety by alternating previously composed sonatas with newly written rondos and Miklós Spányi adds to this by appending an independent set of variations to the collection. Probably intended for amateur keyboard players, the Canzonetta with 6 Variations was composed in 1781, and described by Bach in the catalogue of his works as ‘Canzonetta by the Duchess of Gotha with my 6 variations’.

TRACKLIST
01. Rondo in E Major, Wq. 57/1
02. Keyboard Sonata in A Minor, Wq. 57/2: I. Allegro
03. Keyboard Sonata in A Minor, Wq. 57/2: II. Andante
04. Keyboard Sonata in A Minor, Wq. 57/2: III. Allegro di molto
05. Rondo in G Major, Wq. 57/3
06. Keyboard Sonata in D Minor, Wq. 57/4: I. Allegro moderato
07. Keyboard Sonata in D Minor, Wq. 57/4: II. Cantabile e mesto
08. Keyboard Sonata in D Minor, Wq. 57/4: III. Allegro
09. Rondo in F Major, Wq. 57/5
10. Keyboard Sonata in F Minor, Wq. 57/6: I. Allegro assai
11. Keyboard Sonata in F Minor, Wq. 57/6: II. Andante
12. Keyboard Sonata in F Minor, Wq. 57/6: III. Andantino grazioso
13. Canzonetta with 6 Variations in F Major, Wq. 118/8

PERFORMER: auCDtect Task Manager, ver. 1.6.0 RC1 build 1.6.0.1
Copyright © 2008-2010 y-soft. All rights reserved

ANALYZER: auCDtect: CD records authenticity detector, version 0.8.2
Copyright © 2004 Oleg Berngardt. All rights reserved.
Copyright © 2004 Alexander Djourik. All rights reserved.


FILE: 13. Canzonetta with 6 Variations in F Major, Wq. 1188.flac
Size: 24415689 Hash: AE793CED043E9D29A2EEB3FD74252091 Accuracy: -m0
Conclusion: CDDA 100%
Signature: 79A5E9CA4EC70F5098289FD64898180E36798F89
FILE: 12. Keyboard Sonata in F Minor, Wq. 576 III. Andantino grazioso.flac
Size: 24212347 Hash: 871F3286C088168A720119B9A88EFFBF Accuracy: -m0
Conclusion: CDDA 100%
Signature: 37CFA59660DED66E4AB4A3925D01EBA3ADDCB730
FILE: 11. Keyboard Sonata in F Minor, Wq. 576 II. Andante.flac
Size: 18759106 Hash: 2C9153A2CD53C9BBBD79E118A4E675A2 Accuracy: -m0
Conclusion: CDDA 99%
Signature: 1F71023437FA460B9C4A9E19675454A520AE3313
FILE: 10. Keyboard Sonata in F Minor, Wq. 576 I. Allegro assai.flac
Size: 28775093 Hash: 9CE0FB509FC6C9D9B0B9A5233D5AFB86 Accuracy: -m0
Conclusion: CDDA 100%
Signature: 23780B88D9E3B828DBBB9036502F35F79E52DFD9
FILE: 09. Rondo in F Major, Wq. 575.flac
Size: 28322259 Hash: B93FB16EBA366EDEB16A1BAEA0DA8B37 Accuracy: -m0
Conclusion: CDDA 87%
Signature: BD1EDE68311B60A00D9067E0D7207D5AF945FCEA
FILE: 08. Keyboard Sonata in D Minor, Wq. 574 III. Allegro.flac
Size: 13668437 Hash: C57B125234B6D8B664F8D1AF6458B0CB Accuracy: -m0
Conclusion: CDDA 100%
Signature: 4B06DD198932B3593200CEA68BDACBCD1CAB4136
FILE: 07. Keyboard Sonata in D Minor, Wq. 574 II. Cantabile e mesto.flac
Size: 13025701 Hash: C90BE88A040B4800428B41CA5E876A1F Accuracy: -m0
Conclusion: CDDA 100%
Signature: 46F92CB92096BFA07BBFF142267EC7E9056902A6
FILE: 06. Keyboard Sonata in D Minor, Wq. 574 I. Allegro moderato.flac
Size: 36165364 Hash: 0337C4A985009140B606CED3B6038F15 Accuracy: -m0
Conclusion: CDDA 94%
Signature: 1809CE05AA6BF4F46E4B3251948F7DADAE6B571A
FILE: 05. Rondo in G Major, Wq. 573.flac
Size: 22128474 Hash: 45038C31702EC2CAF375434806C6D541 Accuracy: -m0
Conclusion: CDDA 100%
Signature: 4277BD614B91551AE99147439288901297A9D505
FILE: 04. Keyboard Sonata in A Minor, Wq. 572 III. Allegro di molto.flac
Size: 23046268 Hash: B01CF8CA8EDD356748F02EB31FDDF538 Accuracy: -m0
Conclusion: CDDA 100%
Signature: AC43203686361C9CD49EE36C38DEB60953038158
FILE: 03. Keyboard Sonata in A Minor, Wq. 572 II. Andante.flac
Size: 8008469 Hash: FE40F858CE12CA8D47B7C3E387686425 Accuracy: -m0
Conclusion: CDDA 99%
Signature: C81746A4A35423CA29E52E15F8C581ACC87A7A73
FILE: 02. Keyboard Sonata in A Minor, Wq. 572 I. Allegro.flac
Size: 20418364 Hash: 591B75FE0D6B3571569A93260132F839 Accuracy: -m0
Conclusion: CDDA 100%
Signature: CE5D6D0106F4428840DA0DF80083A7A020BED5CC
FILE: 01. Rondo in E Major, Wq. 571.flac
Size: 35711225 Hash: 4DC20D9CC0AAF41974A459410F6F49F3 Accuracy: -m0
Conclusion: CDDA 100%
Signature: 068B89146C85C98E014C46E83773FB2D772026B5

foobar2000 1.3.7 / Dynamic Range Meter 1.1.1
log date: 2017-09-19 16:48:40

––––––––––––––––––––––––––––––––––––––––
Analyzed: Miklos Spanyi / C.P.E. Bach: The Solo Keyboard Music, Vol. 33
––––––––––––––––––––––––––––––––––––––––

DR Peak RMS Duration Track
––––––––––––––––––––––––––––––––––––––––
DR14 -9.27 dB -28.66 dB 9:11 01-Rondo in E Major, Wq. 57/1
DR12 -11.85 dB -27.16 dB 4:00 02-Keyboard Sonata in A Minor, Wq. 57/2: I. Allegro
DR12 -14.96 dB -31.37 dB 2:12 03-Keyboard Sonata in A Minor, Wq. 57/2: II. Andante
DR15 -9.66 dB -28.15 dB 5:01 04-Keyboard Sonata in A Minor, Wq. 57/2: III. Allegro di molto
DR16 -7.44 dB -28.74 dB 6:00 05-Rondo in G Major, Wq. 57/3
DR13 -10.40 dB -27.72 dB 7:41 06-Keyboard Sonata in D Minor, Wq. 57/4: I. Allegro moderato
DR14 -11.89 dB -31.12 dB 3:50 07-Keyboard Sonata in D Minor, Wq. 57/4: II. Cantabile e mesto
DR13 -13.12 dB -28.77 dB 2:55 08-Keyboard Sonata in D Minor, Wq. 57/4: III. Allegro
DR12 -11.90 dB -28.09 dB 6:09 09-Rondo in F Major, Wq. 57/5
DR14 -9.14 dB -26.58 dB 5:38 10-Keyboard Sonata in F Minor, Wq. 57/6: I. Allegro assai
DR14 -12.34 dB -30.77 dB 4:46 11-Keyboard Sonata in F Minor, Wq. 57/6: II. Andante
DR13 -11.05 dB -28.23 dB 6:07 12-Keyboard Sonata in F Minor, Wq. 57/6: III. Andantino grazioso
DR14 -10.89 dB -29.84 dB 6:28 13-Canzonetta with 6 Variations in F Major, Wq. 118/8
––––––––––––––––––––––––––––––––––––––––

Number of tracks: 13
Official DR value: DR14

Samplerate: 44100 Hz
Channels: 2
Bits per sample: 16
Bitrate: 499 kbps
Codec: FLAC
================================================================================


Miklos Spanyi - C.P.E. Bach: The Solo Keyboard Music, Vol. 33 (2017)


Thanks to the Original customer.