Camel - Camel '73-'75 Gods Of Light (2000) {2007, Remastered Japanese Reissue, Official Camel Bootleg}

Posted By: popsakov
Camel - Camel '73-'75 Gods Of Light (2000) {2007, Remastered Japanese Reissue, Official Camel Bootleg}

Camel - Camel '73-'75 Gods Of Light (2000) {2007, Remastered Japanese Reissue, Official Camel Bootleg}
EAC Rip | WV (Img) + Cue + Log ~ 484 Mb | MP3 CBR320 ~ 175 Mb
Scans Included (JPG, 300 dpi) | RAR 5% Recovery
Art Rock, Progressive Rock | WHD Entertainment #IECP-10130

Gods of Light '73~'75 is a live album by progressive rock band Camel released 26 September 2000. A "re-boot" of an old bootleg of some wonderful BBC radio recordings from 1973, 1974 and 1975. Features the original lineup of Andrew Latimer, Peter Bardens, Andy Ward, and Doug Ferguson.

***************

Camel - Camel '73-'75 Gods Of Light (2000) {2007, Remastered Japanese Reissue, Official Camel Bootleg}

Camel - Camel '73-'75 Gods Of Light (2000) {2007, Remastered Japanese Reissue, Official Camel Bootleg}

Track List:

01. God Of Light Revisited (from Greasy Truckers) [0:16:11.62]
02. White Rider [0:08:54.68]
03. Lady Fantasy [0:11:35.12]
04. Arubaluba (from BBC Broadcast 1974) [0:06:52.50]
05. Excerpts From The Snow Goose (from BBC Radio One In Concert 1975) [0:27:20.73]

Personnel:
Andrew Latimer - guitar, vocals
Peter Bardens - keyboards, vocals
Doug Ferguson - bass, vocals
Andy Ward - drums

Exact Audio Copy V1.2 from 12. August 2016

EAC extraction logfile from 17. July 2017, 16:02

Camel / Camel '73-'75 Gods Of Light [IECP-10130]

Used drive : HL-DT-STBD-RE BH10LS38 Adapter: 1 ID: 1

Read mode : Secure
Utilize accurate stream : Yes
Defeat audio cache : Yes
Make use of C2 pointers : No

Read offset correction : 667
Overread into Lead-In and Lead-Out : No
Fill up missing offset samples with silence : Yes
Delete leading and trailing silent blocks : No
Null samples used in CRC calculations : Yes
Used interface : Installed external ASPI interface

Used output format : User Defined Encoder
Selected bitrate : 128 kBit/s
Quality : High
Add ID3 tag : No
Command line compressor : C:\Program Files (x86)\Exact Audio Copy\wavpack-4.60.1\wavpack.exe
Additional command line options : -hm -w "Year=%year%" -w "Genre=%genre%" %source% %dest%


TOC of the extracted CD

Track | Start | Length | Start sector | End sector
––––––––––––––––––––––––––––-
1 | 0:00.00 | 16:11.62 | 0 | 72886
2 | 16:11.62 | 8:54.68 | 72887 | 113004
3 | 25:06.55 | 11:35.12 | 113005 | 165141
4 | 36:41.67 | 6:52.50 | 165142 | 196091
5 | 43:34.42 | 27:20.73 | 196092 | 319164


Range status and errors

Selected range

Filename G:\Rips by Alder\Camel - Camel '73-'75 Gods Of Light [IECP-10130].wav

Peak level 98.6 %
Extraction speed 7.7 X
Range quality 100.0 %
Test CRC 119BAECE
Copy CRC 119BAECE
Copy OK

No errors occurred


AccurateRip summary

Track 1 accurately ripped (confidence 3) [68E3355A] (AR v2)
Track 2 accurately ripped (confidence 3) [FE7255C0] (AR v2)
Track 3 accurately ripped (confidence 3) [019290CD] (AR v2)
Track 4 accurately ripped (confidence 3) [AE838824] (AR v2)
Track 5 accurately ripped (confidence 2) [508649BB] (AR v2)

All tracks accurately ripped

End of status report

–– CUETools DB Plugin V2.1.6

[CTDB TOCID: abdShxmSK56H2fATo6Q.LMg46lI-] found
Submit result: abdShxmSK56H2fATo6Q.LMg46lI- has been confirmed
Track | CTDB Status
1 | ( 4/10) Accurately ripped
2 | ( 4/10) Accurately ripped
3 | ( 4/10) Accurately ripped
4 | ( 4/10) Accurately ripped
5 | ( 4/10) Accurately ripped


==== Log checksum 05DCD5E5F177E3EC4D7227781467F62C94123181490565F7F545466E248E7B12 ====

foobar2000 1.2.6 / Dynamic Range Meter 1.1.1
log date: 2017-07-23 11:54:05

––––––––––––––––––––––––––––––––––––––––
Analyzed: Camel / Camel '73-'75 Gods Of Light [IECP-10130]
––––––––––––––––––––––––––––––––––––––––

DR Peak RMS Duration Track
––––––––––––––––––––––––––––––––––––––––
DR6 -0.12 dB -8.64 dB 16:12 01-God Of Light Revisited (from Greasy Truckers)
DR7 -0.12 dB -9.67 dB 8:55 02-White Rider
DR7 -0.12 dB -9.74 dB 11:35 03-Lady Fantasy
DR6 -0.12 dB -7.17 dB 6:53 04-Arubaluba (from BBC Broadcast 1974)
DR7 -0.12 dB -10.11 dB 27:21 05-Excerpts From The Snow Goose (from BBC Radio One In Concert 1975)
––––––––––––––––––––––––––––––––––––––––

Number of tracks: 5
Official DR value: DR7

Samplerate: 44100 Hz
Channels: 2
Bits per sample: 16
Bitrate: 898 kbps
Codec: WavPack
================================================================================

[CUETools log; Date: 23.07.2017 14:45:03; Version: 2.1.5]
[CTDB TOCID: abdShxmSK56H2fATo6Q.LMg46lI-] found.
Track | CTDB Status
1 | ( 5/11) Accurately ripped
2 | ( 5/11) Accurately ripped
3 | ( 5/11) Accurately ripped
4 | ( 5/11) Accurately ripped
5 | ( 5/11) Accurately ripped
[AccurateRip ID: 000d37f3-003da868-39109f05] found.
Track [ CRC | V2 ] Status
01 [a5662139|68e3355a] (0+3/6) Accurately ripped
02 [77b15bf2|fe7255c0] (0+3/6) Accurately ripped
03 [3aefdc38|019290cd] (0+3/6) Accurately ripped
04 [7304f132|ae838824] (0+3/6) Accurately ripped
05 [f6217aeb|508649bb] (0+2/5) Accurately ripped
Offsetted by -444:
01 [9f70a3e2] (3/6) Accurately ripped
02 [b23dddbe] (3/6) Accurately ripped
03 [95be1c8c] (3/6) Accurately ripped
04 [c3e5fc63] (3/6) Accurately ripped
05 [c7027396] (3/5) Accurately ripped

Track Peak [ CRC32 ] [W/O NULL] [ LOG ]
– 98,6 [119BAECE] [B6EC7EAF] CRC32
01 98,6 [6CE05F8E] [FC2B4EFE]
02 98,6 [A6A20E37] [E88E2C2C]
03 98,6 [BE2FF897] [01DE0E5B]
04 98,6 [0B838AFE] [8430D6F3]
05 98,6 [17C7AD8F] [941EF216]

Camel - Camel '73-'75 Gods Of Light (2000) {2007, Remastered Japanese Reissue, Official Camel Bootleg}

All thanks go to Alder

>>> Camel in my Blog <<<

Download from icerbox.com: