Subcategories

Camel - The Paris Collection (2001) {2007, Japanese Reissue}

Posted By: popsakov
Camel - The Paris Collection (2001) {2007, Japanese Reissue}

Camel - The Paris Collection (2001) {2007, Japanese Reissue}
EAC Rip | WV (Img) + Cue + Log ~ 471 Mb | MP3 CBR320 ~ 176 Mb
Covers Included (JPG, 300 dpi) | RAR 5% Recovery
Progressive Rock | WHD Entertainment, Inc. #IECP-10131

The Paris Collection is a live album by progressive rock band Camel released 30 October 2001. Keyboardist Guy LeBlanc took vocal duties from Andy Latimer due to the latter's illness. The album features 10 live tracks, including the bonus track 'Slow Yourself Down' (Rehearsal Version) from Camel Productions.

***************

Camel - The Paris Collection (2001) {2007, Japanese Reissue}

Camel - The Paris Collection (2001) {2007, Japanese Reissue}

Track List:

01. Ice [0:08:47.27]
02. Chord Change [0:08:52.73]
03. Fingertips [0:06:40.12]
04. Slow Yourself Down [0:04:30.43]
05. Sahara [0:06:51.29]
06. Mother Road [0:06:07.51]
07. Little River And Little Rose [0:01:55.62]
08. Hopeless Anger [0:05:43.03]
09. Lady Fantasy [0:16:04.67]
10. Slow Yourself Down (Late Night Version) [0:05:34.10]

Personnel:
Colin Bass - acoustic guitar, bass guitar, vocals
Andy Latimer - guitar
Guy LeBlanc - keyboards, vocals
Denis Clement - drums, percussions

Exact Audio Copy V1.2 from 12. August 2016

EAC extraction logfile from 28. September 2017, 15:15

Camel / The Paris Collection [IECP-10131]

Used drive : HL-DT-STBD-RE BH10LS38 Adapter: 1 ID: 1

Read mode : Secure
Utilize accurate stream : Yes
Defeat audio cache : Yes
Make use of C2 pointers : No

Read offset correction : 667
Overread into Lead-In and Lead-Out : No
Fill up missing offset samples with silence : Yes
Delete leading and trailing silent blocks : No
Null samples used in CRC calculations : Yes
Used interface : Installed external ASPI interface

Used output format : User Defined Encoder
Selected bitrate : 128 kBit/s
Quality : High
Add ID3 tag : No
Command line compressor : C:\Program Files (x86)\Exact Audio Copy\wavpack-4.60.1\wavpack.exe
Additional command line options : -hm -w "Year=%year%" -w "Genre=%genre%" %source% %dest%


TOC of the extracted CD

Track | Start | Length | Start sector | End sector
––––––––––––––––––––––––––––-
1 | 0:00.00 | 8:47.27 | 0 | 39551
2 | 8:47.27 | 8:52.73 | 39552 | 79524
3 | 17:40.25 | 6:40.12 | 79525 | 109536
4 | 24:20.37 | 4:30.43 | 109537 | 129829
5 | 28:51.05 | 6:51.29 | 129830 | 160683
6 | 35:42.34 | 6:07.51 | 160684 | 188259
7 | 41:50.10 | 1:55.62 | 188260 | 196946
8 | 43:45.72 | 5:43.03 | 196947 | 222674
9 | 49:29.00 | 16:04.67 | 222675 | 295041
10 | 65:33.67 | 5:34.10 | 295042 | 320101


Range status and errors

Selected range

Filename G:\Rips by Alder\Camel - The Paris Collection [IECP-10131].wav

Peak level 98.6 %
Extraction speed 7.8 X
Range quality 100.0 %
Test CRC 58BDFFFE
Copy CRC 58BDFFFE
Copy OK

No errors occurred


AccurateRip summary

Track 1 accurately ripped (confidence 3) [88E0715D] (AR v2)
Track 2 accurately ripped (confidence 3) [667C84B1] (AR v2)
Track 3 accurately ripped (confidence 3) [620529E2] (AR v2)
Track 4 accurately ripped (confidence 3) [0F5EFD10] (AR v2)
Track 5 accurately ripped (confidence 3) [EE19161B] (AR v2)
Track 6 accurately ripped (confidence 3) [61B05DF7] (AR v2)
Track 7 accurately ripped (confidence 3) [7709127D] (AR v2)
Track 8 accurately ripped (confidence 3) [19B22414] (AR v2)
Track 9 accurately ripped (confidence 3) [4194727E] (AR v2)
Track 10 accurately ripped (confidence 2) [B3175055] (AR v2)

All tracks accurately ripped

End of status report

–– CUETools DB Plugin V2.1.6

[CTDB TOCID: 4JUvYQ6rpPONtza35dnyY1gCaTk-] found
Submit result: 4JUvYQ6rpPONtza35dnyY1gCaTk- has been confirmed
Track | CTDB Status
1 | ( 2/39) Accurately ripped
2 | ( 2/39) Accurately ripped
3 | ( 2/39) Accurately ripped
4 | ( 2/39) Accurately ripped
5 | ( 2/39) Accurately ripped
6 | ( 2/39) Accurately ripped
7 | ( 2/39) Accurately ripped
8 | ( 2/39) Accurately ripped
9 | ( 2/39) Accurately ripped
10 | ( 1/39) Accurately ripped


==== Log checksum 758C3EE36924E8AE8D06BD893C366F43A04F01306C67976AD0F46CEF194D2BCB ====

foobar2000 1.3.16 / Dynamic Range Meter 1.1.1
log date: 2017-10-15 20:00:36

––––––––––––––––––––––––––––––––––––––––
Analyzed: Camel / The Paris Collection [IECP-10131]
––––––––––––––––––––––––––––––––––––––––

DR Peak RMS Duration Track
––––––––––––––––––––––––––––––––––––––––
DR6 -0.12 dB -8.86 dB 8:47 01-Ice
DR7 -0.12 dB -9.60 dB 8:53 02-Chord Change
DR12 -0.12 dB -14.54 dB 6:40 03-Fingertips
DR10 -0.12 dB -11.66 dB 4:31 04-Slow Yourself Down
DR7 -0.12 dB -9.55 dB 6:51 05-Sahara
DR8 -0.12 dB -9.77 dB 6:08 06-Mother Road
DR12 -1.63 dB -16.55 dB 1:56 07-Little River And Little Rose
DR8 -0.12 dB -10.96 dB 5:43 08-Hopeless Anger
DR7 -0.12 dB -10.35 dB 16:05 09-Lady Fantasy
DR11 -0.12 dB -14.23 dB 5:34 10-Slow Yourself Down (Late Night Version)
––––––––––––––––––––––––––––––––––––––––

Number of tracks: 10
Official DR value: DR9

Samplerate: 44100 Hz
Channels: 2
Bits per sample: 16
Bitrate: 873 kbps
Codec: WavPack
================================================================================

[CUETools log; Date: 15.10.2017 20:00:48; Version: 2.1.5]
[CTDB TOCID: 4JUvYQ6rpPONtza35dnyY1gCaTk-] found.
Track | CTDB Status
1 | ( 3/40) Accurately ripped
2 | ( 3/40) Accurately ripped
3 | ( 3/40) Accurately ripped
4 | ( 3/40) Accurately ripped
5 | ( 3/40) Accurately ripped
6 | ( 3/40) Accurately ripped
7 | ( 3/40) Accurately ripped
8 | ( 3/40) Accurately ripped
9 | ( 3/40) Accurately ripped
10 | ( 2/40) Accurately ripped
[AccurateRip ID: 001a954a-00d1a06f-8310ac0a] found.
Track [ CRC | V2 ] Status
01 [768fcb8e|88e0715d] (02+03/37) Accurately ripped
02 [1be982bb|667c84b1] (02+03/37) Accurately ripped
03 [b57010c9|620529e2] (02+03/37) Accurately ripped
04 [67e63440|0f5efd10] (02+03/36) Accurately ripped
05 [1a84cd33|ee19161b] (02+03/35) Accurately ripped
06 [3f3e563b|61b05df7] (02+03/37) Accurately ripped
07 [27de8fdb|7709127d] (02+03/37) Accurately ripped
08 [42cee15d|19b22414] (02+03/37) Accurately ripped
09 [5e68c6f9|4194727e] (00+03/35) Accurately ripped
10 [178cc05e|b3175055] (00+02/34) Accurately ripped

Track Peak [ CRC32 ] [W/O NULL] [ LOG ]
– 98,6 [58BDFFFE] [2F6F0F84] CRC32
01 98,6 [5B432C62] [820FC0DD]
02 98,6 [89C01674] [2936090B]
03 98,6 [0209B34E] [8DE22C8B]
04 98,6 [FF94E74D] [79D2FDB3]
05 98,6 [50F9AED3] [291AADE7]
06 98,6 [F4EC8E2A] [BD327AD9]
07 82,8 [A8F67404] [AAA7D32D]
08 98,6 [5654434A] [1D0458BA]
09 98,6 [505FE97F] [EAF3A9F1]
10 98,6 [5DF11364] [D8D3CB3A]

Camel - The Paris Collection (2001) {2007, Japanese Reissue}

All thanks go to Alder

>>> Camel in my Blog <<<

Download from icerbox.com: