Camel - On The Road 1972 (1992) [2016, Belle Antique BELLE-162565, Japan]

Posted By: v3122
Camel - On The Road 1972 (1992) [2016, Belle Antique BELLE-162565, Japan]

Camel - On The Road 1972 (1992)
EAC | Flac(Image) + Cue + Log & MP3 CBR 320Kbps
Belle Antique, BELLE-162565 | ~ 293 or 104 Mb | Scans(png) -> 82 Mb
Progressive Rock

The '90s found Andy Latimer releasing compact discs on his own label, Camel Productions, which included a new work (Dust and Dreams), a reissue of Camel's first album, and here a live recording of Camel in its earliest stages. On the Road 1972 features Camel in its original quartet form – Peter Bardens, Doug Ferguson, Andy Latimer, and Andy Ward – playing music that would appear on the band's first and second albums, plus a track from Bardens' 1970 solo album, The Answer. It's a little limited at only four tracks, and the stingy liner notes shed little historical light on the music, but longtime fans of Camel will delight in hearing from this incarnation of the band one more time. "Six Ate," which appeared on the group's eponymous debut, is little more than an excuse to jam, sounding at times like Jethro Tull circa A Passion Play. Likewise, Bardens' "God of Light Revisited" – which appeared originally as "Homage to the God of Light" and later, on the Greasy Truckers Live at Dingwall's Dance compilation, as "Lord of Light Revisited" – is an instrumental piece that allows the band to indulge in the kind of spacy jams that marked (some would say "marred") the early '70s. The two tracks that would subsequently appear on Mirage, "Lady Fantasy" and "White Rider" (which would be divided into the two-part "Nimrodel" for that album), are most likely to please fans. They match the studio versions nearly note for note and, as such, reveal a band that was making calculated art; the solos may veer off the path a bit, but these renditions are clearly the template for the subsequent studio versions. The recording is surprisingly good – maybe a hiccup or two on "White Rider," but otherwise better than expected (although Ward's bass drum is undermiked). The playing is tight, with Ferguson anchoring the pieces with his mesmerizing basslines, Ward using his superlative drum skills to optimal effect, Latimer engaging in some creative guitar distortion, and Bardens evoking all manner of sound from his keyboards. And, best of all, the profits don't go to some evil corporation.

by Dave Connolly, AMG
Camel - On The Road 1972 (1992) [2016, Belle Antique BELLE-162565, Japan]

Camel - On The Road 1972 (1992):

Camel - On The Road 1972 (1992) [2016, Belle Antique BELLE-162565, Japan]

Tracklist:

01. Lady Fantasy 13:45
02. Six Ate 06:11
03. White Rider 09:56
04. God Of Light 14:25

Exact Audio Copy V1.1 from 23. June 2015

EAC extraction logfile from 4. July 2016, 19:41

Camel / On The Road 1972 SHM-CD

Used drive : PLEXTOR BD-R PX-B950SA Adapter: 1 ID: 1

Read mode : Secure
Utilize accurate stream : Yes
Defeat audio cache : Yes
Make use of C2 pointers : No

Read offset correction : 6
Overread into Lead-In and Lead-Out : No
Fill up missing offset samples with silence : Yes
Delete leading and trailing silent blocks : No
Null samples used in CRC calculations : Yes
Used interface : Native Win32 interface for Win NT & 2000

Used output format : Internal WAV Routines
Sample format : 44.100 Hz; 16 Bit; Stereo


TOC of the extracted CD

Track | Start | Length | Start sector | End sector
––––––––––––––––––––––––––––-
1 | 0:00.00 | 13:45.62 | 0 | 61936
2 | 13:45.62 | 6:11.00 | 61937 | 89761
3 | 19:56.62 | 9:56.55 | 89762 | 134516
4 | 29:53.42 | 14:25.13 | 134517 | 199404


Range status and errors

Selected range

Filename C:\Users\Meijin\Desktop\ALLexxess\Camel\1992 On The Road 1972 (Mini LP SHM-CD Belle Antique Japan 2016)\Camel - On The Road 1972 SHM-CD.wav

Peak level 98.3 %
Extraction speed 6.7 X
Range quality 100.0 %
Test CRC 47B340C4
Copy CRC 47B340C4
Copy OK

No errors occurred


AccurateRip summary

Track 1 cannot be verified as accurate (confidence 6) [17273FDD], AccurateRip returned [83672F88] (AR v2)
Track 2 cannot be verified as accurate (confidence 6) [EA2EB088], AccurateRip returned [7012407A] (AR v2)
Track 3 cannot be verified as accurate (confidence 6) [F50F7997], AccurateRip returned [EBE697ED] (AR v2)
Track 4 cannot be verified as accurate (confidence 6) [F7EF25B3], AccurateRip returned [CD8DE875] (AR v2)

No tracks could be verified as accurate
You may have a different pressing from the one(s) in the database

End of status report

–– CUETools DB Plugin V2.1.6

[CTDB TOCID: YYMvNCRfrekYgFKNtBOEnn6C9rw-] found
Submit result: YYMvNCRfrekYgFKNtBOEnn6C9rw- has been submitted
Track | CTDB Status
1 | (0/9) No match
2 | (0/9) No match
3 | (0/9) No match
4 | (0/9) No match


==== Log checksum B0606A4D29DBDA950130EC073D77EBDDC3B2A334CE863B3DAD9656B1170B9740 ====

foobar2000 1.2.9 / Dynamic Range Meter 1.1.1
log date: 2016-07-19 15:36:36

––––––––––––––––––––––––––––––––––––––––
Analyzed: Camel / On The Road 1972 SHM-CD
––––––––––––––––––––––––––––––––––––––––

DR Peak RMS Duration Track
––––––––––––––––––––––––––––––––––––––––
DR9 -0.38 dB -12.07 dB 13:46 01-Lady Fantasy
DR10 -0.50 dB -12.13 dB 6:11 02-Six Ate
DR9 -0.31 dB -12.25 dB 9:57 03-White Rider
DR8 -0.14 dB -11.38 dB 14:25 04-God Of Light Revisited
––––––––––––––––––––––––––––––––––––––––

Number of tracks: 4
Official DR value: DR9

Samplerate: 44100 Hz
Channels: 2
Bits per sample: 16
Bitrate: 895 kbps
Codec: FLAC

[CUETools log; Date: 19.07.2016 15:27:52; Version: 2.1.4]
[CTDB TOCID: YYMvNCRfrekYgFKNtBOEnn6C9rw-] found.
Track | CTDB Status
1 | ( 1/10) Accurately ripped
2 | ( 1/10) Accurately ripped
3 | ( 1/10) Accurately ripped
4 | ( 1/10) Accurately ripped
[AccurateRip ID: 000768f5-001d6c3e-3c0a6204] found.
Track [ CRC | V2 ] Status
01 [0fab82ea|17273fdd] (00+00/11) No match
02 [c88fce24|ea2eb088] (00+00/11) No match
03 [ddf31f23|f50f7997] (00+00/11) No match
04 [96bb5675|f7ef25b3] (00+00/11) No match

Track Peak [ CRC32 ] [W/O NULL] [ LOG ]
– 98,3 [47B340C4] [F73B9094] CRC32
01 95,6 [CA40EC06] [B982F928]
02 94,4 [A932A352] [C0AD9F83]
03 96,4 [BADF440C] [D555EABA]
04 98,3 [D122C940] [808F9EDF]

Camel - On The Road 1972 (1992) [2016, Belle Antique BELLE-162565, Japan]

All thanks go to ALLexxess

Camel in my Blog

Download Camel - On The Road 1972 (1992):