Subcategories

Can - Discography (1969 - 1989) Restored

Posted By: v3122
Can - Discography (1969 - 1989) Restored

Can - Discography (1969 - 1989)
EAC Rip | Flac(Image) + Cue + Log | MP3 CBR 320Kbps
13CD | Scans Included | Spoon Records | 2004, 2005, 2006 | ~ 4195 or 1717 Mb
Experimental / Progressive / Kraut Rock | Remastered | SACD CD Layers

Can - Discography (1969 - 1989) Restored

Can:

June 2003 marked the 35th anniversary of the founding of Can when Holger Czukay (bass), David Johnson (flute), jazz drummer Jaki Liebezeit and beat guitar player Michael Karoli met in classical conductor and piano player Irmin Schmidt's Cologne apartment in 1968. Their first gig, a collage of rock music and tape samples, took place at Schloss Nцrvenich (Castle Nцrvenich, near Cologne).The show is documented on the audio cassette Prehistoric Future.

The nameless collective had established its first studio, Inner Space, at the castle when American sculptor Malcolm Mooney, visiting Irmin and Hildegard Schmidt, joined the band. His intuitive drive led the musicians toward a unique take on rock music and the track Father Cannot Yell originated from one of these early sessions. David Johnson, who by then had become the band's sound engineer, left at the end of 1968. Around this period, the lack of a name was solved by Mooney and Liebezeit who came up with The Can.

The first Can album, Monster Movie (1969), defined Can music. Played and recorded spontaneously and driven by repetitive rhythms, the album was recorded directly on to a 2-track machine and then extensively edited. Soundtracks featuring film scores from 1969 and 1970, was the next album. Just after the record was released, Malcolm Mooney left the band and returned to the U.S. The Mooney era is extensively documented on Can - Delay, released in 1982.

In May 1970, Japanese singer Kenji "Damo" Suzuki joined Can after being spotted by Holger Czukay and Jaki Liebezeit busking in Munich. The very same evening he performed with the band at the Blow Up club.

In December 1971, Can founded the Can Studio - known as Inner Space until 1978 when Can soundman Renй Tinner took over running the operation - in a former cinema in Weilerswist, close to Cologne. All subsequent Can albums were produced there except Rite Time. The studio has now been painstakingly disassembled and is being reconstructed to scale as a working exhibit at the German Rock'n'Pop Museum in Gronau, near the Dutch border.

The period 1970-2 was a breakthrough time for the band with Tago Mago (1971) impressing critics in England and France as well as Germany. Ege Bamyasi, released in 1972, featured the track Spoon, the theme tune for the crime thriller Das Messer and also the band's first chart success in Germany. The track, which was the first time that Can used an early version of a drum machine, led to a Goldene Europa TV award in recognition of Can's soundtrack work. Ege Bamyasi also included the music from another TV crime series in the form of Vitamin C.

The success of Spoon inspired the band to try to reach a wider audience which led to the Can Free Concert. The event was filmed by Martin Schдfer, Robbie Mьller and Egon Mann for director Peter Przygodda at the Cologne Sporthalle on February 3rd, 1972. British music weekly Melody Maker wrote: "Can are without doubt the most talented and most consistent experimental rock band in Europe, England included." French magazine Rock & Folk portrayed Can's music as "one of the most impressive musical experiments offered by contemporary bands."

Future Days (1973) was the last Can album with Damo Suzuki. First Michael Karoli took over the vocal duties, followed by short interludes with a succession of singers, among them Tim Hardin. The recording of Soon Over Babaluma that same year marked the end of the era of recording straight onto 2-track. Landed (1975), was the first Can LP to be produced using multi-track technology. The album led Melody Maker to call them "the most advanced rock unit on the planet."

Double album Unlimited Edition (1976) was an extended version of a release that had quickly sold out as Limited Edition two years earlier. Among the tracks were the multi-facetted experiments known as the Ethnological Forgery Series (EFS). Flow Motion, also released in 1976, featured the disco hit I Want More and saw the band performing on UK primetime hitshow Top Of The Pops. The following year Can was augmented by ex-Traffic rhythm duo Rosko Gee (bass) and Reebop Kwaku Baah on percussion.

Holger Czukay had retired as a bass player and on Saw Delight was in charge of "special sounds". His new instrument was a shortwave radio receiver; while his idea to create new impulses for the musical process via radio signals didn't fit within the new Can structure, it became the basis for his first solo album, Movies (1979). The next Can album, Out of Reach (1978), was recorded without Czukay, who had left the band in May 1977, during the final Can tour. On the last show of the tour, in Lisbon at the end of May, Can performed in front of 10,000 fans. The double album Cannibalism (1978) was not just a "Best of …." compilation, it was in fact, an early indication that Can's reputation would continue to grow.

The British avant-garde and several punk acts were deeply inspired by Can. Speaking for many, Pete Shelley (Buzzcocks) is quoted on the Cannibalism cover: "I never would have played guitar if not for Marc Bolan and Michael Karoli of Can". At the end of 1978 the band released Can. Meanwhile Michael Karoli built the Outer Space Studio studio in France, close to Nice. It was there in November 1986 that the original Monster Movie line-up got together again, with vocalist Malcolm Mooney to record Rite Time. The album was released in 1988. The band assembled again at the Can Studio with the same line-up minus Holger to record the track Last Night Sleep for Wim Wenders' film Until the End of the World.

In May 1997, the remix CD Sacrilege provided further evidence of the durability of Can's music. For this tribute, prominent representatives of the techno, dance and ambient scene reworked 15 classic Can tracks. Ironically, the importance of Can's contribution to the wider musical pantheon was summed up by Andrew Weatherall who refused an offer to remix a Can track for Sacrilege: "I love to remix other people's work. But Can? No way. You don't touch music that perfect. There is nothing to add or take away."

The band's chosen means of celebrating its 30th anniversary in 1999 was characteristically original. Eschewing a reunion tour as too obvious, and, more importantly, as being against the spirit of the group, the Can Box and the Can-Solo-Projects tour were the ways in which the group marked the occasion.Can Box includes recordings from the period 1971-77, a tri-lingual book featuring a comprehensive group history, interviews, reviews and photos by Hildegard Schmidt and Wolf Kampmann plus a video with both the Can Free Concert film by Peter Przygodda, and the Can Documentary by DoRo-film.

The Can-Solo-Projects tour, which featured Holger Czukay & U-She, Jaki Liebezeit's Club Off Chaos, Irmin Schmidt & Kumo plus Michael Karoli's Sofortkontakt!, started on March 19th 1999 in Berlin at the Columbia Halle. The tour was so well received that a second leg was organised for September 1999. This went ahead without Holger Czukay who was obliged to pull out at the last minute due to unforeseen circumstances.

Can worked together for the last time in August 1999 at Irmin's studio in Provence with Jono Podmore, to record a cover-version of The Third Man theme (from the film of the same name) for the Pop 2000 compilation released on Herbert Grцnemeyer's label Grцnland/EMI.

On November 17th, 2001, Michael Karoli died after a long fight against cancer.

In March 2003 Can received the most prestigious prize that the German music industry can offer: the Echo award for lifetime achievement was presented at an awards ceremony in Berlin. Herbert Grцnemeyer, one of Germany's most famous artists, made the official speech while Brian Eno sent in a short, witty film about the group. The prize was handed over by the Red Hot Chili Peppers whose guitarist John Frusciante also spoke of his appreciation and respect for Can's music.

The remaining members of Can are all active as both solo artists and collaborators.

By Gary Smiti
Can - Discography (1969 - 1989) Restored

Германская команда Can (г. Кёльн) является ведущей авангардной рок-группой периода 70-х годов. С самого начала их музыка не соответcтвовала стандартным понятиям рок-н-ролла. Тяготеющих больше к классической музыке, чем к Чаку Берри (Chuck Berry), их можно разве что сравнить с Фрэнком Заппой (Frank Zappa) или The Velvet Underground, хотя их произведения были более серьёзны, чем у вышеназванных артистов. Хотя состав коллектива периодически подвергался изменениям, основная четверка с 1968 года была на месте. Это клавишник-синтезаторщик Ирмин Шмидт (нем. Irmin Schmidt) (родился 29 мая 1937), гитарист Михаэль Кароли (нем. Michael Karoli) (29 апреля 1948 – 17 ноября 2001), ударник Яки Либезейт (нем. Jaki Liebezeit) (родился в 1939) и басист Хольгер Цукай (нем. Holger Czukay) (родился 24 марта 1938). В самом начале образования команды, носившей тогда название Inner Space, в ней принял участие также флейтист Дэвид Джонсон (David C. Johnson). Can дебютировали в 1969 году с первым довольно простеньким альбомом «Monster Movie». Эта была единственная работа того периода группы с американским вокалистом Малколмом Муни.

Участники Can вовсе не были старыми друзьями, которые придерживались одинаковых взглядов, не было у них и представления о каком-то конкретном саунде. Музыканты постоянно - и в довольно нелицеприятной форме - говорили друг другу, что они думают о
той или иной новой выдумке, у всех было ощущение, что они занимаются чем-то необычным и значительным: в этом деле недопустимы никакие компромиссы, никакие рок или блюз-клише. Однако с самого начала группу отличали две характерные особенности. Во-первых, это максимальная минимализация саунда и самоограничение, где только можно. Барабанщик Яки Либезейт заявил басисту Хольгеру Цукаю, что тот играет слишком много нот, попробуй, дескать, играть всего одну. Гитарист Михаэль Кароли избегал играть соло. Второй характерной особенностью группы Can была идея спонтанной импровизации как оcновы творческого процесса.
У группы не было звукотехника, его обязанности исполнял Хольгер Цукай. Все производимые в студии звуки писались на двухдорожечный магнитофон, Цукай резал плёнки и довольно виртуозно склеивал из них готовые песни. Первые два года группа обходилась вообще без микшерного пульта - то есть выходы гитарных усилителей и барабанных микрофонов были напрямую подключены к магнитофону. От перегрузки не было никакой защиты. Кроме того, запись велась на старую плёнку аж середины 50-х годов - резанную-перерезанную и клеенную-перекленную. Места старых склеек были прекрасно слышны.
Первый опубликованный альбом группы Can «Monster Movie», вышедший в 1969, звучит как сборник рок-песен, но, вообще говоря, в студии группа играла не столь определённую в жанровом отношении музыку.
Лишь через много лет эти опыты были опубликованы на альбомах «Unlimited Edition» (1976) и «Delay 1968» (1981). Такого рода композиции денег не приносили, да музыканты и сами не решались их публиковать. Концерты были тоже не очень доходным занятием. Can выступали в загородном замке Нёрвенихь (Noervenich), хозяин которого поощрял околохудожественную богему, проводил выставки современного искусства и предоставил группе бесплатное помещение для репетиций. Поскольку музыканты спали днём, а расходились только к вечеру, то каждую ночь замок Нёрвенихь трясло от грохота.
Меценат ужасно мучился, но на улицу нищих музыкантов не выгонял. Клавишник Ирмин Шмидт имел обширные связи в мире кино, и, чтобы не умереть с голоду, Can взялись за киномузыку. Киномузыку Can записывали точно так же, как и всё остальное. Забавно, что музыканты не видели фильм, озвучивать который брались. Ирмин Шмидт, получив очередной контракт, рассказывал коллегам, о чём идёт речь в сценарии, какое в целом настроение фильма, и этого оказывалось достаточно.
Следующий альбом Can назывался «Soundtracks» (1970). Он и состоял из этой самой киномузыки. Группа рассматривала его не в качестве своего второго студийного альбома, а в качестве промежуточного между первым и вторым. Промежуточный он ещё и в том смысле, что на нём звучат голоса двух вокалистов - старого и нового. Дело в том, что Малколм Муни покинул группу. Несмотря на то, что к нему относились с редкой теплотой и вниманием, он не мог простить немецким музыкантам их белого цвета кожи и считал их расистами. Малколм вообще вёл себя неадекватно, никак не мог найти смысл жизни, прогуливал репетиции и концерты, непрерывно курил траву и много пил. В результате он стал неуправляемым и буквально сошёл с ума: его нужно было охранять, чтобы он не выпрыгнул из окна. По совету психиатра его отправили домой в США, где он совершенно прекратил петь.
В мае 1970 года на свой концерт в Мюнхене Can прибыли без вокалиста. Хольгер Цукай и Яки Либезейт сидели в кафе, сквозь стеклянное окно они увидели странного вида (маленького, худенького и с волосами до колен) уличного музыканта, который делал такие движения, как будто молился солнцу. «Знаешь что, - сказал Хольгер своему коллеге, - вон тот парень будет нашим новым певцом». Джеки только хмыкнул. Тем не менее музыканты допили кофе и подошли к странному типу: «Мы, дескать, экспериментальная рок-группа, и сегодня у нас концерт в клубе Blow Up. Если ты вечером не занят, не хочешь ли присоединиться?» Парень, оказавшийся японским хиппи, отзывался на имя Дамо Сузуки (Damo Suzuki). Подумав, он с важным видом согласился. По общему мнению, концерт в Blow Up прошёл блестяще. Сначала Дамо не подавал признаков жизни и еле слышно и довольно загадочно гудел в микрофон, а потом ожил, схватил в руки микрофонную стойку, начал скакать по сцене, размахивать руками и ногами, изображать из себя самурая и кидаться на публику. Музыка превратилась в откровенный нойз. Полторы тысячи человек, собравшиеся на концерт модной группы, дико перепугались и ломанулись к выходу. Началась драка. Группа продолжала в том же духе дальше… Наконец, в зале осталось всего человек тридцать - как потом оказалось, американцев.
Дамо Сузуки оказался в Мюнхене на пути из Японии в США. Он пересёк СССР на поезде, побывал в Москве и двинулся дальше на Запад. Дамо очень плохо говорил по-английски и сочиняемые им тексты были не лишены известной странности. Дамо во многом уступал своим новым коллегам, петь под сложные ритмические конструкции, которые выстукивал Яки Либецайт, он был не в состоянии. Кроме того, Дамо стремился петь мелодично, а к мелодиям Can вовсе не стремились. Раздражало стариков из Can и то, что Дамо любил хард-рок и особенно группу Deep Purple. С появлением Дамо Сузуки изменилась расстановка сил: Дамо был ровесником гитариста Михаэля Кароли, но дело было не только в этом. Клавишник Ирмин Шмидт и басист Хольгер Цукай играли очень отрывисто и ритмично, и мелодично-протяжное пение Дамо было поддержано гитарой Михаэля Кароли.
В своих интервью в 90-х Хольгер Цукай подчёркивал, что Can - это четыре инструменталиста, с которыми сотрудничали разные певцы, верно и то, что Дамо Сузуки ни в коем случае не был музыкальным лидером группы, однако с его появлением Can стали во многих отношениях новым коллективом, а с его уходом в 1973 все чудеса и неожиданности закончились.

Итак на диске 1970 года «Soundtracks», представлявшим собой сборник музыки к фильмам, появился новый певец – японец Кени «Дамо» Сузуки (несколько треков, правда, были записаны еще с Муни). Этот товарищ также владел гитарой, саксофоном и кларнетом и имел за плечами четырехлетний опыт работы.

Интересным по сути получился двойной альбом 1971 года «Tago Mago», на котором были представлены продолжительные композиции с экспериментально-психоделической музыкой. Каждый из музыкантов самовыражался как мог, но диск получился очень интересным. В конце года Can организовали свою собственную студию «Inner Space». На диске «Ege Bamyasi» (1971), состоявшим в основном из саундтреков к фильмам, был впервые использован прообраз современной драм-машины. Эта пластинка первый раз принесла группе хорошие позиции в германских чартах, несмотря на то, что коллектив уже был к тому времени признан слушателями в Европе и даже в Англии. После выхода «Future Days» (1972) команду неожиданно покинул Сузуки. Сначала обязанности вокалиста взял на себя Кароли, а потом это место занимали разные другие личности - такие, как Тим Хардин (Tim Hardin).

Альбом с турецко-овощным названием «Ege Bamyasi» музыканты записывали в новой студии, которую сняли в помещении бывшего кинотеатра. Её стены были обиты изнутри матрасами бундесвера, поэтому можно было шуметь, сколько душе угодно. Всё оборудование было на редкость примитивным. Самодельный восьмиканальный микшерный пульт, шесть микрофонов, два двухдорожечных магнитофона… и это, практически, всё. Эхо-эффект получался так - на лестничную клетку выносили колонку, а через пару пролётов ставили микрофон. Уровень записи контролировали по осциллографу.
Поскольку многодорожечной записи не использовалось, то что-то исправить или изменить было невозможно. Иными словами, песни не микшировались, то есть было невозможно после окончания записи сделать один инструмент громче, а другой - тише, или, скажем, добавить к барабану эхо. Как записалось, так и записалось. Хольгер Цукай стоял перед микшерным пультом и слушал, кто что играет, двигал ручки эквалайзеров, включал склеенные в кольцо плёнки или звуки из своего знаменитого диктофона, а также играл на бас-гитаре, висевшей на шее.
Кстати, его диктофон был старым американским прибором, предназначавшимся для армейских секретарш. Диктофон не только многократно проигрывал одно и то же место плёнки, но и позволял плавно изменять скорость воспроизведения. Для этого был предусмотрен специальный рычажок. Хольгер использовал этот диктофон как семплер каменного века. Звуки из коротковолнового радиоприёмника - скажем, обрывки речи - писались на армейский диктофон, а потом добавлялись в общий импровизационный котёл. Двигая рычажок, то есть изменяя высоту тона, Хольгер Цукай наловчился играть на магнитофончике. Раз невозможно было микшировать, то группа многократно исполняла одни и те же композиции - каждый раз, разумеется, по-новому, а потом Хольгер резал плёнки на части и склеивал из них окончательный вариант песни.

В 1974-м году Can поставили своеобразный рекорд, отыграв в Берлине концерт, продолжавшийся почти сутки. К концу 1975-го в коллектив вернулся Муни, поучаствовший в записи «Flow Motion» (1975), содержавшим фантазии на восточные темы. Этот альбом сопровождался хитовым синглом, сделанным в стиле диско - «I Want More».

На следующий год в состав были добавлены басист Роско Джи (Rosko Gee) и перкуссионист Рибоп Кваку Ба (Rebop Kwaku Baah)из «Traffic». Эти ребята привнесли в музыку Can элементы рэгги. С другой стороны, Цукай, оставивший бас-гитару и взявшийся за спецэффекты, стремился внести в саунд неестественные синтезированные элементы. Тем не менее, альбомы, записанные в этот период, оказались, пожалуй, самыми лучшими в дискографии ансамбля. «Out of Reach» (1978), правда, записывался без Цукая, который оставил группу по окончании последнего тура Can в мае 1977-го. А на следующий год команда была совсем распущена, поскольку музыканты решили заняться сольной карьерой. Кароли построил себе студию во Франции, где восемь лет спустя бывшие коллеги собрались вновь в своем первом составе и записали альбом «Rite Time» (1989).

Те же лица без Хольгера собирались еще раз, в 1991 году, чтобы записать саундтрек «Last Night Sleep» к фильму Вима Ведерса «Until the End of the World». Но история Can на этом не закончилась. Новая волна интереса к творчеству ансамбля всколыхнулась в 1997-м, когда на свет появился сборник ремиксов под названием «Sacrilege».

В 1999-ом четыре основных участника Can (Кароли, Либезейт, Шмидт и Цукай) отыграли на одном и том же концерте, хотя и каждый - в составе своего сольного проекта: Sofortkontakt, Club Off Chaos, Kumo и U-she соответственно.

Михаэль Кароли умер 17 ноября 2001 года после продолжительной борьбы с раком.

В 2004 году группа начала переиздание своей ремастированной дискографии на Super Audio CD, которое было завершено в 2006 году.

Сan повлияли на массу самых разных музыкантов, от Брайана Ино (Brian Eno) до Джонни Роттена, который после ухода из Sex Pistols предложил себя на место певца в Can, но группа уже фактически не существовала. Минималистический бит Can и Neu! был перенят большим количеством панк-, хардкор- и индастриал-групп. Sonic Youth называют эти группы одним из главных источников своего вдохновения - а Sonic Youth были источником вдохновения для целой струи американского альтернативного рока. Вообще, как только заходит речь о минимализме в рок-музыке - сразу всплывают имена Can и Neu!.

–––––––––––––––––––––-

Can - Discography Can - Discography (1969 - 1989):

Can - Discography (1969 - 1989) Restored

CD01: Can - Monster Movie (1969)
Krautrock | EAC Rip | Flac(Image) + Cue + Log | MP3 CBR 320Kbps
Scans(400dpi) Included | Spoon, SPOONSA4 | 2004 | ~ 256 + 112 Mb

Can's debut is the only full-length, proper release to feature original vocalist Malcolm Mooney, whose free-form ranting is matched by a raw, aggressive dynamic unlike anything else in the group's canon; driving, dissonant songs like the extraordinary "Father Cannot Yell" and "Outside My Door" even owe a rather surprising debt to psychedelia and garage rock. More indicative of things to come is the closer, "Yoo Doo Right," a 20-minute epic built on the kinds of hypnotic motifs and minimal rhythms that quickly became Can trademarks.

by Jason Ankeny, AMG
Can - Discography (1969 - 1989) Restored

Tracklist:

1. Father Cannot Yell - 7:07
2. Mary, Mary So Contrary - 6:22
3. Outside My Door - 4:12
4. Yoo Doo Right - 20:28

Exact Audio Copy V0.99 prebeta 5 from 4. May 2009

Отчёт EAC об извлечении, выполненном 26. февраля 2010, 8:47

The Can / Monster Movie

Дисковод: PIONEER DVD-RW DVR-112D Adapter: 1 ID: 0

Режим чтения : Достоверность
Использование точного потока : Да
Отключение кэша аудио : Да
Использование указателей C2 : Нет

Коррекция смещения при чтении : 48
Способность читать области Lead-in и Lead-out : Нет
Заполнение пропущенных сэмплов тишиной : Да
Удаление блоков с тишиной в начале и конце : Нет
При вычислениях CRC использовались нулевые сэмплы : Да
Интерфейс : Установленный внешний ASPI-интерфейс

Выходной формат : Пользовательский кодировщик
Выбранный битрейт : 128 kBit/s
Качество : Высокий
Добавление ID3-тэга : Нет
Утилита сжатия : C:\Program Files\Exact Audio Copy\Flac\flac.exe
Дополнительные параметры : -8 -V %s


TOC извлечённого CD

Трек | Старт | Длительность | Начальный сектор | Конечный сектор
––––––––––––––––––––––––––––––––––-
1 | 0:00.00 | 7:06.47 | 0 | 31996
2 | 7:06.47 | 6:22.30 | 31997 | 60676
3 | 13:29.02 | 4:11.73 | 60677 | 79574
4 | 17:41.00 | 20:27.70 | 79575 | 171669


Характеристики диапазона извлечения и сообщения об ошибках

Выбранный диапазон

Имя файла D:\M.Music\Can - SACD rem\Monster Movie\The Can - Monster Movie.wav

Пиковый уровень 99.9 %
Качество диапазона 99.9 %
CRC теста E6782227
CRC копии E6782227
Копирование… OK

Ошибок не произошло


AccurateRip: сводка

Трек 1 точное извлечение (доверие 29) [6F0724B8]
Трек 2 точное извлечение (доверие 29) [AB3FFB48]
Трек 3 точное извлечение (доверие 30) [EFBE3DE3]
Трек 4 точное извлечение (доверие 30) [783FAAFF]

Все треки извлечены точно

Конец отчёта

AUDIOCHECKER v2.0 beta (build 457) - by Dester - opdester@freemail.hu
~~~~~~~~~~~~~~~~~~~~~~~~~~~~~~~~~~
-=== DO NOT EDIT THIS FILE! ===-

Path: …\1969 - Monster Movie (2004)

01 -=- The Can - Monster Movie.flac -=- CDDA (100%)

48383236

[Verification date: 05.04.2011 16:01:09]
[Disc ID: 00053f6f-0015b554-2408f004]
Track [ CRC ] Status
01 [6f0724b8] (39/58) Accurately ripped as in pressing(s) #1
02 [ab3ffb48] (39/58) Accurately ripped as in pressing(s) #1
03 [efbe3de3] (40/59) Accurately ripped as in pressing(s) #1
04 [783faaff] (40/59) Accurately ripped as in pressing(s) #1
Offsetted by -1298:
01 [205244a2] (02/58) Accurately ripped as in pressing(s) #4
02 [c599cab0] (02/58) Accurately ripped as in pressing(s) #4
03 [581ad0a1] (02/59) Accurately ripped as in pressing(s) #4
04 [7028ce99] (02/59) Accurately ripped as in pressing(s) #4
Offsetted by -634:
01 [d3d37aea] (04/58) Accurately ripped as in pressing(s) #3
02 [b94dded0] (04/58) Accurately ripped as in pressing(s) #3
03 [9fc26f79] (04/59) Accurately ripped as in pressing(s) #3
04 [0a308ea1] (04/59) Accurately ripped as in pressing(s) #3
Offsetted by -92:
01 [57b2ed64] (13/58) Accurately ripped as in pressing(s) #2
02 [3f75ae78] (13/58) Accurately ripped as in pressing(s) #2
03 [0948f1e7] (13/59) Accurately ripped as in pressing(s) #2
04 [8b00e84b] (13/59) Accurately ripped as in pressing(s) #2

Track [ CRC32 ] [W/O NULL] [ LOG ]
– [E6782227] [8C9B2AEF] CRC32
01 [ED971EBB] [21566FD3]
02 [0BD850AF] [44CD2397]
03 [0499E325] [8A8E58BD]
04 [91FF4224] [1D284901]

––––––––––––––––––––––––––––––––-

Can - Discography (1969 - 1989) Restored

CD02: Can - Soundtracks (1970)
Krautrock | EAC Rip | Flac(Image) + Cue + Log | MP3 CBR 320Kbps
Scans(400dpi) Included | Spoon, SPOONSA5 | 2004 | ~ 255 + 107 Mb

Malcolm Mooney passes the baton to Damo Suzuki for Soundtracks, a collection of film music featuring contributions from both vocalists. The dichotomy between the two singers is readily apparent: Suzuki's odd, strangulated vocals fit far more comfortably into the group's increasingly intricate and subtle sound, allowing for greater variation than Mooney's stream-of-consciousness discourse.

by Jason Ankeny, AMG
Can - Discography (1969 - 1989) Restored

Tracklist:

1. Deadlock – 3:27 (from the film «Deadlock», 1970, dir. Roland Klick)
2. Tango Whiskyman – 4:04 (from the film «Deadlock», 1970, dir. Roland Klick)
3. Deadlock – 1:40 (Titelmusik from the film «Deadlock», 1970, dir. Roland Klick)
4. Don't Turn The Light On, Leave Me Alone» – 3:42 (from the film «Cream)
5. Soul Desert – 3:49 (from the film «Mädchen… nur mit Gewalt», 1970, dir. Roger Fritz)
6. Mother Sky – 14:32 (from the film «Deep End», 1971, dir. Jerzy Skolimowski)
7. She Brings the Rain – 4:05 (from the film «Bottom», 1971, dir. Thomas Schamoni)

Exact Audio Copy V0.99 prebeta 5 from 4. May 2009

Отчёт EAC об извлечении, выполненном 26. февраля 2010, 9:02

Can / Soundtracks

Дисковод: PIONEER DVD-RW DVR-112D Adapter: 1 ID: 0

Режим чтения : Достоверность
Использование точного потока : Да
Отключение кэша аудио : Да
Использование указателей C2 : Нет

Коррекция смещения при чтении : 48
Способность читать области Lead-in и Lead-out : Нет
Заполнение пропущенных сэмплов тишиной : Да
Удаление блоков с тишиной в начале и конце : Нет
При вычислениях CRC использовались нулевые сэмплы : Да
Интерфейс : Установленный внешний ASPI-интерфейс

Выходной формат : Пользовательский кодировщик
Выбранный битрейт : 128 kBit/s
Качество : Высокий
Добавление ID3-тэга : Нет
Утилита сжатия : C:\Program Files\Exact Audio Copy\Flac\flac.exe
Дополнительные параметры : -8 -V %s


TOC извлечённого CD

Трек | Старт | Длительность | Начальный сектор | Конечный сектор
––––––––––––––––––––––––––––––––––-
1 | 0:00.00 | 3:27.37 | 0 | 15561
2 | 3:27.37 | 4:04.03 | 15562 | 33864
3 | 7:31.40 | 1:40.27 | 33865 | 41391
4 | 9:11.67 | 3:42.30 | 41392 | 58071
5 | 12:54.22 | 3:48.38 | 58072 | 75209
6 | 16:42.60 | 14:31.45 | 75210 | 140579
7 | 31:14.30 | 4:04.40 | 140580 | 158919


Характеристики диапазона извлечения и сообщения об ошибках

Выбранный диапазон

Имя файла D:\M.Music\Can - SACD rem\Soundtracks\Can - Soundtracks.wav

Пиковый уровень 99.9 %
Качество диапазона 99.9 %
CRC теста 7D54A9FB
CRC копии 7D54A9FB
Копирование… OK

Ошибок не произошло


AccurateRip: сводка

Трек 1 точное извлечение (доверие 21) [37577153]
Трек 2 точное извлечение (доверие 21) [4154B311]
Трек 3 точное извлечение (доверие 21) [D897DB0F]
Трек 4 точное извлечение (доверие 21) [DAE09966]
Трек 5 точное извлечение (доверие 21) [8FE21B6E]
Трек 6 точное извлечение (доверие 21) [A7FB8C3B]
Трек 7 точное извлечение (доверие 21) [76E98014]

Все треки извлечены точно

Конец отчёта

AUDIOCHECKER v2.0 beta (build 457) - by Dester - opdester@freemail.hu
~~~~~~~~~~~~~~~~~~~~~~~~~~~~~~~~~~
-=== DO NOT EDIT THIS FILE! ===-

Path: …\1970 - Soundtracks (2004)

01 -=- Can - Soundtracks.flac -=- CDDA (100%)

168223492

Verification date: 05.04.2011 16:01:48]
[Disc ID: 0007fd51-00324860-55084607]
Track [ CRC ] Status
01 [37577153] (28/44) Accurately ripped as in pressing(s) #1
02 [4154b311] (28/43) Accurately ripped as in pressing(s) #1
03 [d897db0f] (28/43) Accurately ripped as in pressing(s) #1
04 [dae09966] (28/43) Accurately ripped as in pressing(s) #1
05 [8fe21b6e] (28/43) Accurately ripped as in pressing(s) #1
06 [a7fb8c3b] (28/43) Accurately ripped as in pressing(s) #1
07 [76e98014] (28/43) Accurately ripped as in pressing(s) #1
Offsetted by -1310:
01 [3d2f113d] (03/44) Accurately ripped as in pressing(s) #4
02 [ed781fdb] (03/43) Accurately ripped as in pressing(s) #4
03 [1d9d8acb] (03/43) Accurately ripped as in pressing(s) #4
04 [436a7b2a] (03/43) Accurately ripped as in pressing(s) #4
05 [fe3b8c5a] (03/43) Accurately ripped as in pressing(s) #4
06 [7cca10e1] (03/43) Accurately ripped as in pressing(s) #4
07 [d9d817a6] (03/43) Accurately ripped as in pressing(s) #4
Offsetted by -670:
01 [cce4fdbd] (09/44) Accurately ripped as in pressing(s) #2
02 [f343a45b] (08/43) Accurately ripped as in pressing(s) #2
03 [8a758ec5] (08/43) Accurately ripped as in pressing(s) #2
04 [b45a500c] (08/43) Accurately ripped as in pressing(s) #2
05 [0ac3a35a] (08/43) Accurately ripped as in pressing(s) #2
06 [8a131861] (08/43) Accurately ripped as in pressing(s) #2
07 [055bb626] (08/43) Accurately ripped as in pressing(s) #2
Offsetted by -646:
01 [157bd035] (04/44) Accurately ripped as in pressing(s) #3
02 [c6ae7953] (04/43) Accurately ripped as in pressing(s) #3
03 [414f1c20] (04/43) Accurately ripped as in pressing(s) #3
04 [cb4d2e4d] (04/43) Accurately ripped as in pressing(s) #3
05 [d1a2576a] (04/43) Accurately ripped as in pressing(s) #3
06 [30f908a9] (04/43) Accurately ripped as in pressing(s) #3
07 [d6fd727e] (04/43) Accurately ripped as in pressing(s) #3

Track [ CRC32 ] [W/O NULL] [ LOG ]
– [7D54A9FB] [DB15BB7B] CRC32
01 [2ED37B05] [62739FBA]
02 [8CFE2B5E] [BFBBC279]
03 [7447D448] [EFEAFB13]
04 [FD2CA68F] [D2B24285]
05 [30D76A37] [A66D119D]
06 [A3E6C9F2] [1C91EA83]
07 [3574BF91] [60023CAC]

––––––––––––––––––––––––––––––––-

Can - Discography (1969 - 1989) Restored

CD03: Can - Tago Mago (1971)
Krautrock | EAC Rip | Flac(Image) + Cue + Log | MP3 CBR 320Kbps
Scans(400dpi) Included | Spoon, SPOONSA6/7 | 2004 | ~ 510 + 203 Mb

With the band in full artistic flower and Damo Suzuki's sometimes moody, sometimes frenetic speak/sing/shrieking in full effect, Can released not merely one of the best Krautrock albums of all time, but one of the best albums ever, period. Tago Mago is that rarity of the early '70s, a double album without a wasted note, ranging from sweetly gentle float to full-on monster grooves. "Paperhouse" starts things brilliantly, beginning with a low-key chime and beat, before amping up into a rumbling roll in the midsection, then calming down again before one last blast. Both "Mushroom" and "Oh Yeah," the latter with Schmidt filling out the quicker pace with nicely spooky keyboards, continue the fine vibe. After that, though, come the huge highlights – three long examples of Can at its absolute best. "Halleluwah" – featuring the Liebezeit/Czukay rhythm section pounding out a monster trance/funk beat; Karoli's and Schmidt's always impressive fills and leads; and Suzuki's slow-building ranting above everything – is 19 minutes of pure genius. The near-rhythmless flow of "Aumgn" is equally mind-blowing, with swaths of sound from all the members floating from speaker to speaker in an ever-evolving wash, leading up to a final jam. "Peking O" continues that same sort of feeling, but with a touch more focus, throwing in everything from Chinese-inspired melodies and jazzy piano breaks to cheap organ rhythm boxes and near babbling from Suzuki along the way. "Bring Me Coffee or Tea" wraps things up as a fine, fun little coda to a landmark record.

by Ned Raggett, AMG
Can - Discography (1969 - 1989) Restored

Tracklist:

1. Paperhouse - 7:29
2. Mushroom - 4:04
3. Oh Yeah - 7:23
4. Halleluhwah - 18:33
5. Aumgn - 17:37
6. Peking O - 11:38
7. Bring Me Coffee or Tea - 6:47

Exact Audio Copy V0.99 prebeta 5 from 4. May 2009

Отчёт EAC об извлечении, выполненном 26. февраля 2010, 9:57

Can / Tago Mago

Дисковод: PIONEER DVD-RW DVR-112D Adapter: 1 ID: 0

Режим чтения : Достоверность
Использование точного потока : Да
Отключение кэша аудио : Да
Использование указателей C2 : Нет

Коррекция смещения при чтении : 48
Способность читать области Lead-in и Lead-out : Нет
Заполнение пропущенных сэмплов тишиной : Да
Удаление блоков с тишиной в начале и конце : Нет
При вычислениях CRC использовались нулевые сэмплы : Да
Интерфейс : Установленный внешний ASPI-интерфейс

Выходной формат : Пользовательский кодировщик
Выбранный битрейт : 128 kBit/s
Качество : Высокий
Добавление ID3-тэга : Нет
Утилита сжатия : C:\Program Files\Exact Audio Copy\Flac\flac.exe
Дополнительные параметры : -8 -V %s


TOC извлечённого CD

Трек | Старт | Длительность | Начальный сектор | Конечный сектор
––––––––––––––––––––––––––––––––––-
1 | 0:00.00 | 7:28.67 | 0 | 33666
2 | 7:28.67 | 4:03.43 | 33667 | 51934
3 | 11:32.35 | 7:23.07 | 51935 | 85166
4 | 18:55.42 | 18:32.55 | 85167 | 168621
5 | 37:28.22 | 17:37.15 | 168622 | 247911
6 | 55:05.37 | 11:37.65 | 247912 | 300251
7 | 66:43.27 | 6:47.00 | 300252 | 330776


Характеристики диапазона извлечения и сообщения об ошибках

Выбранный диапазон

Имя файла D:\M.Music\Can - SACD rem\Tago Mago\Can - Tago Mago.wav

Пиковый уровень 99.9 %
Качество диапазона 100.0 %
CRC теста FFC8C913
CRC копии FFC8C913
Копирование… OK

Ошибок не произошло


AccurateRip: сводка

Трек 1 точное извлечение (доверие 40) [D3989716]
Трек 2 точное извлечение (доверие 40) [B5558D80]
Трек 3 точное извлечение (доверие 40) [4E18373D]
Трек 4 точное извлечение (доверие 40) [11F24915]
Трек 5 точное извлечение (доверие 40) [1E600C97]
Трек 6 точное извлечение (доверие 40) [74658DB7]
Трек 7 точное извлечение (доверие 37) [478D0C2F]

Все треки извлечены точно

Конец отчёта

AUDIOCHECKER v2.0 beta (build 457) - by Dester - opdester@freemail.hu
~~~~~~~~~~~~~~~~~~~~~~~~~~~~~~~~~~
-=== DO NOT EDIT THIS FILE! ===-

Path: …\1971 - Tago Mago (2004)

01 -=- Can - Tago Mago.flac -=- CDDA (99%)

252171444

[Verification date: 05.04.2011 16:02:48]
[Disc ID: 0012971c-00749d02-49113a07]
Track [ CRC ] Status
01 [d3989716] (55/98) Accurately ripped as in pressing(s) #1
02 [b5558d80] (55/100) Accurately ripped as in pressing(s) #1
03 [4e18373d] (55/98) Accurately ripped as in pressing(s) #1
04 [11f24915] (53/96) Accurately ripped as in pressing(s) #1
05 [1e600c97] (54/97) Accurately ripped as in pressing(s) #1
06 [74658db7] (54/97) Accurately ripped as in pressing(s) #1
07 [478d0c2f] (51/93) Accurately ripped as in pressing(s) #1
Offsetted by -670:
01 [9dfe85e3] (31/98) Accurately ripped as in pressing(s) #2
02 [779b57e8] (33/100) Accurately ripped as in pressing(s) #2
03 [95c387d2] (31/98) Accurately ripped as in pressing(s) #2
04 [1cc163b9] (31/96) Accurately ripped as in pressing(s) #2
05 [747e2dc5] (31/97) Accurately ripped as in pressing(s) #2
06 [74fefe6b] (31/97) Accurately ripped as in pressing(s) #2
07 [58041dbf] (30/93) Accurately ripped as in pressing(s) #2
Offsetted by -664:
01 [1aba545e] (04/98) Accurately ripped as in pressing(s) #4
02 [02b6a2c1] (04/100) Accurately ripped as in pressing(s) #4
03 [d350b5e4] (04/98) Accurately ripped as in pressing(s) #4
04 [fb08e565] (04/96) Accurately ripped as in pressing(s) #4
05 [2ef2106f] (04/97) Accurately ripped as in pressing(s) #4
06 [80741147] (04/97) Accurately ripped as in pressing(s) #4
07 [4ae0a96f] (04/93) Accurately ripped as in pressing(s) #4
Offsetted by -646:
01 [36330856] (06/98) Accurately ripped as in pressing(s) #3
02 [026cbb7b] (06/100) Accurately ripped as in pressing(s) #3
03 [7e69b39c] (06/98) Accurately ripped as in pressing(s) #3
04 [95df6a69] (06/96) Accurately ripped as in pressing(s) #3
05 [5e4db86d] (06/97) Accurately ripped as in pressing(s) #3
06 [a2d349db] (06/97) Accurately ripped as in pressing(s) #3
07 [23764c7f] (06/93) Accurately ripped as in pressing(s) #3

Track [ CRC32 ] [W/O NULL] [ LOG ]
– [FFC8C913] [A4D4C467] CRC32
01 [3566E444] [7349CD47]
02 [BB26E1EC] [1565CAF1]
03 [A2AA5265] [BA806B81]
04 [0B2E17B8] [642B4197]
05 [2F463661] [63585D11]
06 [C1F1511F] [12106C17]
07 [F39E9278] [AD421C1F]

––––––––––––––––––––––––––––––––-

Can - Discography (1969 - 1989) Restored

CD04: Can - Ege Bamyasi (1972)
Krautrock | EAC Rip | Flac(Image) + Cue + Log | MP3 CBR 320Kbps
Scans(400dpi) Included | Spoon, SPOONSA8 | 2004 | ~ 291 + 119 Mb

The follow-up to Tago Mago is only lesser in terms of being shorter; otherwise the Can collective delivers its expected musical recombination act with the usual power and ability. Liebezeit, at once minimalist and utterly funky, provides another base of key beat action for everyone to go off on – from the buried, lengthy solos by Karoli on "Pinch" to the rhythm box/keyboard action on "Spoon." The latter song, which closes the album, is particularly fine, its sound hinting at an influence on everything from early Ultravox songs like "Hiroshima Mon Amour" to the hollower rhythms on many of Gary Numan's first efforts. Liebezeit and Czukay's groove on "One More Night," calling to mind a particularly cool nightclub at the end of the evening, shows that Stereolab didn't just take the brain-melting crunch side of Can as inspiration. The longest track, "Soup," lets the band take off on another one of its trademark lengthy rhythm explorations, though not without some tweaks to the expected sound. About four minutes in, nearly everything drops away, with Schmidt and Liebezeit doing the most prominent work; after that, it shifts into some wonderfully grating and crumbling keyboards combined with Suzuki's strange pronouncements, before ending with a series of random interjections from all the members. Playfulness abounds as much as skill: Slide whistles trade off with Suzuki on "Pinch"; squiggly keyboards end "Vitamin C"; and rollicking guitar highlights "I'm So Green." The underrated and equally intriguing sense of drift that the band brings to its recordings continues as always. "Sing Swan Song" is particularly fine, a gentle float with Schmidt's keyboards and Czukay's bass taking the fore to support Suzuki's sing-song vocal.

by Ned Raggett, AMG
Can - Discography (1969 - 1989) Restored

Tracklist:

1. Pinch - 9:31
2. Sing Swan Song - 4:49
3. One More Night - 5:36
4. Vitamin C - 3:32
5. Soup - 10:32
6. I'm So Green - 3:06
7. Spoon - 3:04

Exact Audio Copy V0.99 prebeta 5 from 4. May 2009

Отчёт EAC об извлечении, выполненном 26. февраля 2010, 12:30

Can / Ege Bamyasi

Дисковод: PIONEER DVD-RW DVR-112D Adapter: 1 ID: 0

Режим чтения : Достоверность
Использование точного потока : Да
Отключение кэша аудио : Да
Использование указателей C2 : Нет

Коррекция смещения при чтении : 48
Способность читать области Lead-in и Lead-out : Нет
Заполнение пропущенных сэмплов тишиной : Да
Удаление блоков с тишиной в начале и конце : Нет
При вычислениях CRC использовались нулевые сэмплы : Да
Интерфейс : Установленный внешний ASPI-интерфейс

Выходной формат : Пользовательский кодировщик
Выбранный битрейт : 128 kBit/s
Качество : Высокий
Добавление ID3-тэга : Нет
Утилита сжатия : C:\Program Files\Exact Audio Copy\Flac\flac.exe
Дополнительные параметры : -8 -V %s


TOC извлечённого CD

Трек | Старт | Длительность | Начальный сектор | Конечный сектор
––––––––––––––––––––––––––––––––––-
1 | 0:00.00 | 9:30.47 | 0 | 42796
2 | 9:30.47 | 4:49.08 | 42797 | 64479
3 | 14:19.55 | 5:36.20 | 64480 | 89699
4 | 19:56.00 | 3:32.00 | 89700 | 105599
5 | 23:28.00 | 10:32.35 | 105600 | 153034
6 | 34:00.35 | 3:06.15 | 153035 | 166999
7 | 37:06.50 | 3:04.37 | 167000 | 180836


Характеристики диапазона извлечения и сообщения об ошибках

Выбранный диапазон

Имя файла D:\M.Music\Can - SACD rem\Ege Bamyasi\Can - Ege Bamyasi.wav

Пиковый уровень 99.9 %
Качество диапазона 100.0 %
CRC теста 4A8B9D6F
CRC копии 4A8B9D6F
Копирование… OK

Ошибок не произошло


AccurateRip: сводка

Трек 1 точное извлечение (доверие 27) [CB09B255]
Трек 2 точное извлечение (доверие 27) [9DF73421]
Трек 3 точное извлечение (доверие 27) [16FBFA1B]
Трек 4 точное извлечение (доверие 27) [A9C7BD57]
Трек 5 точное извлечение (доверие 27) [46272FAC]
Трек 6 точное извлечение (доверие 27) [2579F0BB]
Трек 7 точное извлечение (доверие 27) [151F3503]

Все треки извлечены точно

Конец отчёта

AUDIOCHECKER v2.0 beta (build 457) - by Dester - opdester@freemail.hu
~~~~~~~~~~~~~~~~~~~~~~~~~~~~~~~~~~
-=== DO NOT EDIT THIS FILE! ===-

Path: …\1972 - Ege Bamyasi (2004)

01 -=- Can - Ege Bamyasi.flac -=- CDDA (100%)

193442228

[Verification date: 05.04.2011 16:03:23]
[Disc ID: 000c4279-0047b65d-4e096b07]
Track [ CRC ] Status
01 [cb09b255] (35/71) Accurately ripped as in pressing(s) #1
02 [9df73421] (35/71) Accurately ripped as in pressing(s) #1
03 [16fbfa1b] (35/71) Accurately ripped as in pressing(s) #1
04 [a9c7bd57] (35/72) Accurately ripped as in pressing(s) #1
05 [46272fac] (35/71) Accurately ripped as in pressing(s) #1
06 [2579f0bb] (35/71) Accurately ripped as in pressing(s) #1
07 [151f3503] (35/71) Accurately ripped as in pressing(s) #1
Offsetted by -670:
01 [7ddf5213] (26/71) Accurately ripped as in pressing(s) #2
02 [1560ffb5] (26/71) Accurately ripped as in pressing(s) #2
03 [e262bb3b] (26/71) Accurately ripped as in pressing(s) #2
04 [b2359fec] (27/72) Accurately ripped as in pressing(s) #2
05 [a608b879] (26/71) Accurately ripped as in pressing(s) #2
06 [cc52b88d] (26/71) Accurately ripped as in pressing(s) #2
07 [20037d91] (26/71) Accurately ripped as in pressing(s) #2
Offsetted by -664:
01 [df9d376d] (07/71) Accurately ripped as in pressing(s) #3
02 [36b29531] (07/71) Accurately ripped as in pressing(s) #3
03 [6a1dcc9b] (07/71) Accurately ripped as in pressing(s) #3
04 [43e6b77d] (07/72) Accurately ripped as in pressing(s) #3
05 [d6ec09ee] (07/71) Accurately ripped as in pressing(s) #3
06 [e40c00e3] (07/71) Accurately ripped as in pressing(s) #3
07 [1cdc005b] (07/71) Accurately ripped as in pressing(s) #3
Offsetted by -646:
01 [04d6e77b] (03/71) Accurately ripped as in pressing(s) #4
02 [9aa755a5] (03/71) Accurately ripped as in pressing(s) #4
03 [014f00bb] (03/71) Accurately ripped as in pressing(s) #4
04 [03990dfa] (03/72) Accurately ripped as in pressing(s) #4
05 [4d963383] (03/71) Accurately ripped as in pressing(s) #4
06 [2b37d9e5] (03/71) Accurately ripped as in pressing(s) #4
07 [136588b9] (03/71) Accurately ripped as in pressing(s) #4

Track [ CRC32 ] [W/O NULL] [ LOG ]
– [4A8B9D6F] [28B86984] CRC32
01 [A73A9672] [4A16C62D]
02 [247C766C] [26B9C11E]
03 [A9659E26] [244F775D]
04 [7C49D92D] [62C6ED89]
05 [FB5FF06C] [4FEF5C02]
06 [DE4BF065] [14D4D39A]
07 [ED9934B8] [B5285B26]


––––––––––––––––––––––––––––––––-

Can - Discography (1969 - 1989) Restored

CD05: Can - Future Days (1973)
Krautrock | EAC Rip | Flac(Image) + Cue + Log | MP3 CBR 320Kbps
Scans(400dpi) Included | Spoon, 9288-2 | 2005 | ~ 304 + 126 Mb

On Future Days, Can fully explored the ambient direction they had introduced into their sound on the previous year's Ege Bamyasi, and in the process created a landmark in European electronic music. Where Ege Bamyasi had played fast and loose with elements of rock song structure, Future Days dispensed with these elements altogether, creating hazy, expansive soundscapes dominated by percolating rhythms and evocative layers of keys. Vocalist Damo Suzuki turns in his final and most inspired performance with the band. His singing, which takes the form here of a rhythmic, nonsensical murmur, is all minimal texture and shading. Apart from the delightfully concise single "Moonshake," the album is comprised of just three long atmospheric pieces of music. The title track eases us into the sonic wash, while "Spray" is built around Suzuki's eerie vocals, which weave in and out of the shimmering instrumental tracks. The closing "Bel Air" is a gloriously expansive piece of music that progresses almost imperceptibly, ending abruptly after exactly 20 minutes. Aptly titled, Future Days is fiercely progressive, calming, complex, intense, and beautiful all at once. It is one of Can's most fully realized and lasting achievements.

by Anthony Tognazzini, AMG
Can - Discography (1969 - 1989) Restored

Tracklist:

1. Future Days – 9:31
2. Spray – 8:29
3. Moonshake – 3:04
4. Bel Air – 19:53

Exact Audio Copy V0.99 prebeta 5 from 4. May 2009

Отчёт EAC об извлечении, выполненном 23. февраля 2010, 23:07

Can / Future Days

Дисковод: PIONEER DVD-RW DVR-112D Adapter: 1 ID: 0

Режим чтения : Достоверность
Использование точного потока : Да
Отключение кэша аудио : Да
Использование указателей C2 : Нет

Коррекция смещения при чтении : 48
Способность читать области Lead-in и Lead-out : Нет
Заполнение пропущенных сэмплов тишиной : Да
Удаление блоков с тишиной в начале и конце : Нет
При вычислениях CRC использовались нулевые сэмплы : Да
Интерфейс : Установленный внешний ASPI-интерфейс

Выходной формат : Пользовательский кодировщик
Выбранный битрейт : 128 kBit/s
Качество : Высокий
Добавление ID3-тэга : Нет
Утилита сжатия : C:\Program Files\Exact Audio Copy\Flac\flac.exe
Дополнительные параметры : -8 -V %s


TOC извлечённого CD

Трек | Старт | Длительность | Начальный сектор | Конечный сектор
––––––––––––––––––––––––––––––––––-
1 | 0:00.00 | 9:30.46 | 0 | 42795
2 | 9:30.46 | 8:29.05 | 42796 | 80975
3 | 17:59.51 | 3:04.15 | 80976 | 94790
4 | 21:03.66 | 19:52.57 | 94791 | 184247


Характеристики диапазона извлечения и сообщения об ошибках

Выбранный диапазон

Имя файла D:\M.Music\Can - SACD remast\Future Days\Can - Future Days.wav

Пиковый уровень 98.8 %
Качество диапазона 100.0 %
CRC теста 4862D0B7
CRC копии 4862D0B7
Копирование… OK

Ошибок не произошло


AccurateRip: сводка

Трек 1 точное извлечение (доверие 10) [33869A65]
Трек 2 точное извлечение (доверие 10) [DF547A9C]
Трек 3 точное извлечение (доверие 10) [B4B8E1FB]
Трек 4 точное извлечение (доверие 11) [CDF1A479]

Все треки извлечены точно

Конец отчёта

AUDIOCHECKER v2.0 beta (build 457) - by Dester - opdester@freemail.hu
~~~~~~~~~~~~~~~~~~~~~~~~~~~~~~~~~~
-=== DO NOT EDIT THIS FILE! ===-

Path: …\1973 - Future Days (2005)

01 -=- Can - Future Days.flac -=- CDDA (100%)

79170436

[Verification date: 05.04.2011 16:03:49]
[Disc ID: 0006257b-0018dafd-28099804]
Track [ CRC ] Status
01 [33869a65] (16/65) Accurately ripped as in pressing(s) #2
02 [df547a9c] (16/65) Accurately ripped as in pressing(s) #2
03 [b4b8e1fb] (16/65) Accurately ripped as in pressing(s) #2
04 [cdf1a479] (16/63) Accurately ripped as in pressing(s) #2
Offsetted by 9:
01 [31b6a704] (03/65) Accurately ripped as in pressing(s) #4
02 [f314f9e2] (03/65) Accurately ripped as in pressing(s) #4
03 [0b117193] (03/65) Accurately ripped as in pressing(s) #4
04 [17e865fe] (03/63) Accurately ripped as in pressing(s) #4
Offsetted by 670:
01 [902a45f7] (40/65) Accurately ripped as in pressing(s) #1
02 [f315ef30] (40/65) Accurately ripped as in pressing(s) #1
03 [5eeb874b] (40/65) Accurately ripped as in pressing(s) #1
04 [5025075f] (38/63) Accurately ripped as in pressing(s) #1
Offsetted by 673:
01 [3a3a4a2c] (06/65) Accurately ripped as in pressing(s) #3
02 [f9ab6ef2] (06/65) Accurately ripped as in pressing(s) #3
03 [265e61d3] (06/65) Accurately ripped as in pressing(s) #3
04 [68cc9d36] (06/63) Accurately ripped as in pressing(s) #3

Track [ CRC32 ] [W/O NULL] [ LOG ]
– [4862D0B7] [96AA2F86] CRC32
01 [24D4836A] [D8308F17]
02 [261B4C89] [EADB7B59]
03 [57775EBE] [83A0AB07]
04 [C7CA1710] [29A0F1A8]

––––––––––––––––––––––––––––––––-

Can - Discography (1969 - 1989) Restored

CD06: Can - Soon Over Babaluma (1974)
Krautrock | EAC Rip | Flac(Image) + Cue + Log | MP3 CBR 320Kbps
Scans(400dpi) Included | Spoon, 9289-2 | 2005 | ~ 270 + 119 Mb

With Suzuki departed, vocal responsibilities were now split between Karoli and Schmidt. Wisely, neither try to clone Mooney or Suzuki, instead aiming for their own low-key way around things. The guitarist half speaks/half whispers his lines on the opening groover, "Dizzy Dizzy," while on "Come Sta, La Luna" Schmidt uses a higher pitch that is mostly buried in the background. Czukay sounds like he's throwing in some odd movie samples on that particular track, though perhaps it's just heavy flanging on Schmidt's vocals. Karoli's guitar achieves near-flamenco levels on the song, an attractive development that matches up nicely with the slightly lighter and jazzier rhythms the band comes up with on tracks like "Splash." Also, his violin work – uncredited on earlier releases – is a bit more prominent here. Musically, if things are a touch less intense on Babaluma, the sense of a band perfectly living in each other's musical pocket and able to react on a dime hasn't changed at all. "Chain Reaction," the longest track on the album, shows that the combination of lengthy jam and slight relaxation actually can go together rather well. After an initial four minutes of quicker pulsing and rhythm (which sounds partly machine provided), things downshift into a slower vocal section before firing up again; Karoli's blistering guitar work at this point is striking to behold. "Chain Reaction" bleeds into Babaluma's final song, "Quantum Physics," a more ominous piece with Czukay's bass closer to the fore, shaded by Schmidt's work and sometimes accompanied by Liebezeit. It makes for a nicely mysterious conclusion to the album.

by Ned Raggett, AMG
Can - Discography (1969 - 1989) Restored

Tracklist:

1. Dizzy Dizzy – 5:41
2. Come Sta, La Luna – 5:43
3. Splash – 7:46
4. Chain Reaction – 11:09
5. Quantum Physics – 8:31

Exact Audio Copy V0.99 prebeta 5 from 4. May 2009

Отчёт EAC об извлечении, выполненном 23. февраля 2010, 23:22

Can / Soon Over Babaluma

Дисковод: PIONEER DVD-RW DVR-112D Adapter: 1 ID: 0

Режим чтения : Достоверность
Использование точного потока : Да
Отключение кэша аудио : Да
Использование указателей C2 : Нет

Коррекция смещения при чтении : 48
Способность читать области Lead-in и Lead-out : Нет
Заполнение пропущенных сэмплов тишиной : Да
Удаление блоков с тишиной в начале и конце : Нет
При вычислениях CRC использовались нулевые сэмплы : Да
Интерфейс : Установленный внешний ASPI-интерфейс

Выходной формат : Пользовательский кодировщик
Выбранный битрейт : 128 kBit/s
Качество : Высокий
Добавление ID3-тэга : Нет
Утилита сжатия : C:\Program Files\Exact Audio Copy\Flac\flac.exe
Дополнительные параметры : -8 -V %s


TOC извлечённого CD

Трек | Старт | Длительность | Начальный сектор | Конечный сектор
––––––––––––––––––––––––––––––––––-
1 | 0:00.00 | 5:40.59 | 0 | 25558
2 | 5:40.59 | 5:42.52 | 25559 | 51260
3 | 11:23.36 | 7:45.61 | 51261 | 86196
4 | 19:09.22 | 11:09.13 | 86197 | 136384
5 | 30:18.35 | 8:31.13 | 136385 | 174722


Характеристики диапазона извлечения и сообщения об ошибках

Выбранный диапазон

Имя файла D:\M.Music\Can - SACD remast\Soon Over Babaluma\Can - Soon Over Babaluma.wav

Пиковый уровень 98.8 %
Качество диапазона 100.0 %
CRC теста 8E5C03A1
CRC копии 8E5C03A1
Копирование… OK

Ошибок не произошло


AccurateRip: сводка

Трек 1 точное извлечение (доверие 9) [AED02900]
Трек 2 точное извлечение (доверие 9) [3D91AD1E]
Трек 3 точное извлечение (доверие 9) [D4F12483]
Трек 4 точное извлечение (доверие 9) [5512470D]
Трек 5 точное извлечение (доверие 9) [813BBD22]

Все треки извлечены точно

Конец отчёта

AUDIOCHECKER v2.0 beta (build 457) - by Dester - opdester@freemail.hu
~~~~~~~~~~~~~~~~~~~~~~~~~~~~~~~~~~
-=== DO NOT EDIT THIS FILE! ===-

Path: …\1974 - Soon Over Babaluma (2005)

01 -=- Can - Soon Over Babaluma.flac -=- CDDA (100%)

78867908

[Verification date: 05.04.2011 16:04:19]
[Disc ID: 00073c0d-0022ca11-31091905]
Track [ CRC ] Status
01 [aed02900] (12/31) Accurately ripped as in pressing(s) #2
02 [3d91ad1e] (12/31) Accurately ripped as in pressing(s) #2
03 [d4f12483] (12/31) Accurately ripped as in pressing(s) #2
04 [5512470d] (12/31) Accurately ripped as in pressing(s) #2
05 [813bbd22] (12/31) Accurately ripped as in pressing(s) #2
Offsetted by -569:
01 [d6a6101b] (02/31) Accurately ripped as in pressing(s) #3
02 [c2bacf4b] (02/31) Accurately ripped as in pressing(s) #3
03 [a3e5ca82] (02/31) Accurately ripped as in pressing(s) #3
04 [ccf225ac] (02/31) Accurately ripped as in pressing(s) #3
05 [ce951cd8] (02/31) Accurately ripped as in pressing(s) #3
Offsetted by 92:
01 [f95b3dac] (15/31) Accurately ripped as in pressing(s) #1
02 [74861392] (15/31) Accurately ripped as in pressing(s) #1
03 [b5478fbf] (15/31) Accurately ripped as in pressing(s) #1
04 [e34ffd37] (15/31) Accurately ripped as in pressing(s) #1
05 [0adba0ac] (15/31) Accurately ripped as in pressing(s) #1
Offsetted by 95:
01 [7638d1d3] (02/31) Accurately ripped as in pressing(s) #4
02 [22d664d3] (02/31) Accurately ripped as in pressing(s) #4
03 [39cff1da] (02/31) Accurately ripped as in pressing(s) #4
04 [0aeec92f] (02/31) Accurately ripped as in pressing(s) #4
05 [6093620d] (02/31) Accurately ripped as in pressing(s) #4

Track [ CRC32 ] [W/O NULL] [ LOG ]
– [8E5C03A1] [8C5473F8] CRC32
01 [D09C2B1F] [E8A3F154]
02 [D335DF8B] [7A88A510]
03 [20ED12A8] [319FAD33]
04 [D9814240] [7C0D858A]
05 [300F9DA0] [34065EC3]

––––––––––––––––––––––––––––––––-

Can - Discography (1969 - 1989) Restored

CD07: Can - Landed (1975)
Krautrock | EAC Rip | Flac(Image) + Cue + Log | MP3 CBR 320Kbps
Scans(400dpi) Included | Spoon, 9291-2 | 2005 | ~ 275 + 121 Mb

Another erratic waxing features some great guitar and Babaluma-style grooves, but is unfocused on the whole.

by Myles Boisen, AMG
Can - Discography (1969 - 1989) Restored

Tracklist:

1. Full Moon on the Highway 3:32
2. Half Past One" 4:39
3. Hunters and Collectors - 4:20
4. Vernal Equinox - 8:48
5. Red Hot Indians - 5:38
6. Unfinished - 13:21

Exact Audio Copy V0.99 prebeta 5 from 4. May 2009

Отчёт EAC об извлечении, выполненном 23. февраля 2010, 22:29

Can / Landed

Дисковод: PIONEER DVD-RW DVR-112D Adapter: 1 ID: 0

Режим чтения : Достоверность
Использование точного потока : Да
Отключение кэша аудио : Да
Использование указателей C2 : Нет

Коррекция смещения при чтении : 48
Способность читать области Lead-in и Lead-out : Нет
Заполнение пропущенных сэмплов тишиной : Да
Удаление блоков с тишиной в начале и конце : Нет
При вычислениях CRC использовались нулевые сэмплы : Да
Интерфейс : Установленный внешний ASPI-интерфейс

Выходной формат : Пользовательский кодировщик
Выбранный битрейт : 128 kBit/s
Качество : Высокий
Добавление ID3-тэга : Нет
Утилита сжатия : C:\Program Files\Exact Audio Copy\Flac\flac.exe
Дополнительные параметры : -8 -V %s


TOC извлечённого CD

Трек | Старт | Длительность | Начальный сектор | Конечный сектор
––––––––––––––––––––––––––––––––––-
1 | 0:00.00 | 3:32.12 | 0 | 15911
2 | 3:32.12 | 4:39.24 | 15912 | 36860
3 | 8:11.36 | 4:19.55 | 36861 | 56340
4 | 12:31.16 | 8:48.01 | 56341 | 95941
5 | 21:19.17 | 5:38.09 | 95942 | 121300
6 | 26:57.26 | 13:21.02 | 121301 | 181377


Характеристики диапазона извлечения и сообщения об ошибках

Выбранный диапазон

Имя файла D:\M.Music\Can - SACD remast\Landed\Can - Landed.wav

Пиковый уровень 98.8 %
Качество диапазона 100.0 %
CRC теста 3A347E0C
CRC копии 3A347E0C
Копирование… OK

Ошибок не произошло


AccurateRip: сводка

Трек 1 точное извлечение (доверие 5) [B0049672]
Трек 2 точное извлечение (доверие 5) [0B03DA49]
Трек 3 точное извлечение (доверие 5) [2813B536]
Трек 4 точное извлечение (доверие 5) [7CB38157]
Трек 5 точное извлечение (доверие 5) [23A9B821]
Трек 6 точное извлечение (доверие 5) [78C5CC75]

Все треки извлечены точно

Конец отчёта

AUDIOCHECKER v2.0 beta (build 457) - by Dester - opdester@freemail.hu
~~~~~~~~~~~~~~~~~~~~~~~~~~~~~~~~~~
-=== DO NOT EDIT THIS FILE! ===-

Path: …\1975 - Landed (2005)

01 -=- Can - Landed.flac -=- CDDA (100%)

1156436

[Verification date: 05.04.2011 16:04:44]
[Disc ID: 0007bf57-002b6906-45097206]
Track [ CRC ] Status
01 [b0049672] (08/23) Accurately ripped as in pressing(s) #2
02 [0b03da49] (08/23) Accurately ripped as in pressing(s) #2
03 [2813b536] (08/23) Accurately ripped as in pressing(s) #2
04 [7cb38157] (08/23) Accurately ripped as in pressing(s) #2
05 [23a9b821] (08/22) Accurately ripped as in pressing(s) #2
06 [78c5cc75] (08/22) Accurately ripped as in pressing(s) #2
Offsetted by 21:
01 [e018b8e5] (03/23) Accurately ripped as in pressing(s) #3
02 [5202fab6] (03/23) Accurately ripped as in pressing(s) #3
03 [47dfa6cf] (03/23) Accurately ripped as in pressing(s) #3
04 [e29bd50e] (03/23) Accurately ripped as in pressing(s) #3
05 [a4b2b74f] (03/22) Accurately ripped as in pressing(s) #3
06 [c63bfd43] (03/22) Accurately ripped as in pressing(s) #3
Offsetted by 670:
01 [388537b8] (10/23) Accurately ripped as in pressing(s) #1
02 [ad079235] (10/23) Accurately ripped as in pressing(s) #1
03 [269f86a4] (10/23) Accurately ripped as in pressing(s) #1
04 [31e8b766] (10/23) Accurately ripped as in pressing(s) #1
05 [387f9df5] (09/22) Accurately ripped as in pressing(s) #1
06 [e3378009] (09/22) Accurately ripped as in pressing(s) #1
Offsetted by 685:
01 [74386da8] (02/23) Accurately ripped as in pressing(s) #4
02 [17fc268d] (02/23) Accurately ripped as in pressing(s) #4
03 [6465972b] (02/23) Accurately ripped as in pressing(s) #4
04 [c69a748b] (02/23) Accurately ripped as in pressing(s) #4
05 [94aa9d5f] (02/22) Accurately ripped as in pressing(s) #4
06 [63b07e53] (02/22) Accurately ripped as in pressing(s) #4

Track [ CRC32 ] [W/O NULL] [ LOG ]
– [3A347E0C] [39A2B2B1] CRC32
01 [080B865A] [7A1376FC]
02 [8AB2BE01] [1DFFDB71]
03 [A2C3B381] [D7D07070]
04 [FC6E48A3] [005CED1D]
05 [3CE539E1] [A1A68395]
06 [28BE3866] [2CFDE7C2]

––––––––––––––––––––––––––––––––-

Can - Discography (1969 - 1989) Restored

CD08: Can - Unlimited Edition (1976)
Krautrock | EAC Rip | Flac(Image) + Cue + Log | MP3 CBR 320Kbps
Scans(400dpi) Included | Spoon, 9220-2 | 2005 | ~ 513 + 213 Mb

Can - Discography (1969 - 1989) Restored

Tracklist:

1. Gomorrha (Dec. 73) – 5:46
2. Doko E (Aug. 73) – 2:28
3. LH 702 (Nairobi/München) (Mar. 72) – 2:14
4. I'm Too Leise (Mar. 72) – 5:11
5. Musette (Jan. 70) – 2:14
6. Blue Bag (Inside Paper) (Oct. 70) – 1:18
7. E.F.S. No. 27 (Dec. 70) – 1:49
8. TV Spot (Apr. 71) – 3:03
9. E.F.S. No. 7 (Sep. 68) – 1:07
10. The Empress and the Ukraine King (Jan. 69) – 4:42
11. E.F.S. No. 10 (Jan. 69) – 2:02
12. Mother Upduff (May 69) – 4:30
13. E.F.S. No. 36 (May 74) – 1:58
14. Cutaway (Mar. 69) – 17:11
15. Connection (Mar. 69) – 2:59
16. Fall of Another Year (Aug. 69) – 3:24
17. E.F.S. No. 8 (Nov. 68) – 1:37
18. Transcendental Express (Jul. 75) – 4:40
19. Ibis (Sep. 74) – 9:20

Exact Audio Copy V0.99 prebeta 5 from 4. May 2009

Отчёт EAC об извлечении, выполненном 23. февраля 2010, 22:53

Can / Unlimited Edition

Дисковод: PIONEER DVD-RW DVR-112D Adapter: 1 ID: 0

Режим чтения : Достоверность
Использование точного потока : Да
Отключение кэша аудио : Да
Использование указателей C2 : Нет

Коррекция смещения при чтении : 48
Способность читать области Lead-in и Lead-out : Нет
Заполнение пропущенных сэмплов тишиной : Да
Удаление блоков с тишиной в начале и конце : Нет
При вычислениях CRC использовались нулевые сэмплы : Да
Интерфейс : Установленный внешний ASPI-интерфейс

Выходной формат : Пользовательский кодировщик
Выбранный битрейт : 128 kBit/s
Качество : Высокий
Добавление ID3-тэга : Нет
Утилита сжатия : C:\Program Files\Exact Audio Copy\Flac\flac.exe
Дополнительные параметры : -8 -V %s


TOC извлечённого CD

Трек | Старт | Длительность | Начальный сектор | Конечный сектор
––––––––––––––––––––––––––––––––––-
1 | 0:00.00 | 5:45.60 | 0 | 25934
2 | 5:45.60 | 2:28.36 | 25935 | 37070
3 | 8:14.21 | 2:13.60 | 37071 | 47105
4 | 10:28.06 | 5:10.74 | 47106 | 70429
5 | 15:39.05 | 2:14.10 | 70430 | 80489
6 | 17:53.15 | 1:18.09 | 80490 | 86348
7 | 19:11.24 | 1:48.40 | 86349 | 94488
8 | 20:59.64 | 3:02.66 | 94489 | 108204
9 | 24:02.55 | 1:06.62 | 108205 | 113216
10 | 25:09.42 | 4:41.63 | 113217 | 134354
11 | 29:51.30 | 2:02.11 | 134355 | 143515
12 | 31:53.41 | 4:29.39 | 143516 | 163729
13 | 36:23.05 | 1:58.18 | 163730 | 172597
14 | 38:21.23 | 17:10.49 | 172598 | 249896
15 | 55:31.72 | 2:59.20 | 249897 | 263341
16 | 58:31.17 | 3:23.71 | 263342 | 278637
17 | 61:55.13 | 1:37.19 | 278638 | 285931
18 | 63:32.32 | 4:39.39 | 285932 | 306895
19 | 68:11.71 | 9:19.65 | 306896 | 348885


Характеристики диапазона извлечения и сообщения об ошибках

Выбранный диапазон

Имя файла D:\M.Music\Can - SACD remast\Unlimited Edition\Can - Unlimited Edition.wav

Пиковый уровень 99.5 %
Качество диапазона 100.0 %
CRC теста 7DEB9BFB
CRC копии 7DEB9BFB
Копирование… OK

Ошибок не произошло


AccurateRip: сводка

Трек 1 точное извлечение (доверие 4) [D3404A55]
Трек 2 точное извлечение (доверие 4) [BD826D0E]
Трек 3 точное извлечение (доверие 4) [3C324ECC]
Трек 4 точное извлечение (доверие 4) [2CE86D80]
Трек 5 точное извлечение (доверие 4) [97CCEBFA]
Трек 6 точное извлечение (доверие 4) [CF388699]
Трек 7 точное извлечение (доверие 4) [E6CF8F36]
Трек 8 точное извлечение (доверие 4) [E4E33637]
Трек 9 точное извлечение (доверие 4) [1005C48B]
Трек 10 точное извлечение (доверие 4) [AE09C642]
Трек 11 точное извлечение (доверие 4) [9EA60014]
Трек 12 точное извлечение (доверие 4) [128E4FBF]
Трек 13 точное извлечение (доверие 4) [71F1F76C]
Трек 14 точное извлечение (доверие 4) [2D67F042]
Трек 15 точное извлечение (доверие 4) [D83035BE]
Трек 16 точное извлечение (доверие 4) [B3B0C46F]
Трек 17 точное извлечение (доверие 4) [7E7BFF5F]
Трек 18 точное извлечение (доверие 4) [53541C00]
Трек 19 точное извлечение (доверие 4) [16928516]

Все треки извлечены точно

Конец отчёта

AUDIOCHECKER v2.0 beta (build 457) - by Dester - opdester@freemail.hu
~~~~~~~~~~~~~~~~~~~~~~~~~~~~~~~~~~
-=== DO NOT EDIT THIS FILE! ===-

Path: …\1976 - Unlimited Edition (2005)

01 -=- Can - Unlimited Edition.flac -=- CDDA (100%)

220556532

[Verification date: 05.04.2011 16:06:29]
[Disc ID: 002df20a-0290ecbc-f6122b13]
Track [ CRC ] Status
01 [d3404a55] (08/21) Accurately ripped as in pressing(s) #2
02 [bd826d0e] (08/21) Accurately ripped as in pressing(s) #2
03 [3c324ecc] (08/21) Accurately ripped as in pressing(s) #2
04 [2ce86d80] (08/21) Accurately ripped as in pressing(s) #2
05 [97ccebfa] (08/21) Accurately ripped as in pressing(s) #2
06 [cf388699] (08/21) Accurately ripped as in pressing(s) #2
07 [e6cf8f36] (08/21) Accurately ripped as in pressing(s) #2
08 [e4e33637] (08/21) Accurately ripped as in pressing(s) #2
09 [1005c48b] (08/21) Accurately ripped as in pressing(s) #2
10 [ae09c642] (08/21) Accurately ripped as in pressing(s) #2
11 [9ea60014] (08/21) Accurately ripped as in pressing(s) #2
12 [128e4fbf] (08/21) Accurately ripped as in pressing(s) #2
13 [71f1f76c] (08/21) Accurately ripped as in pressing(s) #2
14 [2d67f042] (08/21) Accurately ripped as in pressing(s) #2
15 [d83035be] (08/21) Accurately ripped as in pressing(s) #2
16 [b3b0c46f] (08/21) Accurately ripped as in pressing(s) #2
17 [7e7bff5f] (08/21) Accurately ripped as in pressing(s) #2
18 [53541c00] (08/21) Accurately ripped as in pressing(s) #2
19 [16928516] (08/21) Accurately ripped as in pressing(s) #2
Offsetted by 92:
01 [3592a1d4] (13/21) Accurately ripped as in pressing(s) #1
02 [42f31647] (13/21) Accurately ripped as in pressing(s) #1
03 [41b53338] (13/21) Accurately ripped as in pressing(s) #1
04 [4f387904] (13/21) Accurately ripped as in pressing(s) #1
05 [58198692] (13/21) Accurately ripped as in pressing(s) #1
06 [97808b99] (13/21) Accurately ripped as in pressing(s) #1
07 [83cf44e4] (13/21) Accurately ripped as in pressing(s) #1
08 [e38ec8a7] (13/21) Accurately ripped as in pressing(s) #1
09 [5c52bbc9] (13/21) Accurately ripped as in pressing(s) #1
10 [bbe83240] (13/21) Accurately ripped as in pressing(s) #1
11 [ef84fecd] (13/21) Accurately ripped as in pressing(s) #1
12 [9e521b69] (13/21) Accurately ripped as in pressing(s) #1
13 [3b8df99f] (13/21) Accurately ripped as in pressing(s) #1
14 [54cd16de] (13/21) Accurately ripped as in pressing(s) #1
15 [cf790ada] (13/21) Accurately ripped as in pressing(s) #1
16 [bb947240] (13/21) Accurately ripped as in pressing(s) #1
17 [a89db34c] (13/21) Accurately ripped as in pressing(s) #1
18 [04aa46ce] (13/21) Accurately ripped as in pressing(s) #1
19 [df984716] (13/21) Accurately ripped as in pressing(s) #1

Track [ CRC32 ] [W/O NULL] [ LOG ]
– [7DEB9BFB] [31D7C4AB] CRC32
01 [E5357092] [3FEDDFFF]
02 [ED6CBD84] [2B42EEF7]
03 [5CFF44EA] [760EAB7F]
04 [6DAAEDE0] [83189F13]
05 [2C46CEB0] [DE738CA7]
06 [7F3CB140] [D788CBC0]
07 [9E09574A] [C4476AB6]
08 [AE4CC547] [1E173511]
09 [9180A6F4] [5AE18265]
10 [31153B2A] [2E584A86]
11 [C07F2337] [EA3F1877]
12 [E1AD3D13] [883385E5]
13 [E5CE218D] [59CE39C8]
14 [EDF4B2DB] [ED4EC2C4]
15 [F1202C7E] [CB0093BF]
16 [B6C5706A] [8184FBE0]
17 [9C7E0554] [EE3E1F7A]
18 [C903BC05] [B7E21397]
19 [B9697E71] [66EDFE0A]

––––––––––––––––––––––––––––––––-

Can - Discography (1969 - 1989) Restored

CD09: Can - Flow Motion (1976)
Krautrock | EAC Rip | Flac(Image) + Cue + Log | MP3 CBR 320Kbps
Scans(400dpi) Included | Spoon, 9317-2 | 2006 | ~ 287 + 118 Mb

The second of Can's three Virgin albums, 1976's Flow Motion, is a divisive record in the group's canon. It was their most commercially successful album (the opening track, "I Want More," was released as a single in the U.K. and actually charted, thanks to its smoothly percolating near-disco groove, which makes it resemble a late-period Roxy Music hit), but many fans dismiss it as the group's feint toward commercial success. That fluke hit aside, the charge doesn't really hold water. There's a newfound smoothness to the group's interplay, which Holger Czukay attributes to an interest in reggae music, yet the Caribbean influence is quite subtle; only on "Cascade Waltz" and, particularly, "Laugh Till You Cry Live Till You Die" is there a noticeable reggae lilt. The two highlight tracks are "Smoke," a wild, Moroccan-styled entry in their ever-growing Ethnological Forgery Series, and the limber title track, a ten-and-a-half minute instrumental groove that recalls the best moments of earlier albums like Soon Over Babaluma. By no means one of Can's very best albums, Flow Motion deserves better than its poor reputation in some circles.

by Stewart Mason, AMG
Can - Discography (1969 - 1989) Restored

Tracklist:

1. I Want More (3:29)
2. Cascade Waltz (5:35)
3. Laugh Till You Cry, Live Till You Die (6:43)
4. …. And More (2:43)
5. Babylonian Pearl (3:29)
6. Smoke (E.F.S. No. 59) (5:15)
7. Flow Motion (10:23)

Exact Audio Copy V0.99 prebeta 5 from 4. May 2009

Отчёт EAC об извлечении, выполненном 22. февраля 2010, 20:08

Can / Flow Motion

Дисковод: PIONEER DVD-RW DVR-112D Adapter: 1 ID: 0

Режим чтения : Достоверность
Использование точного потока : Да
Отключение кэша аудио : Да
Использование указателей C2 : Нет

Коррекция смещения при чтении : 48
Способность читать области Lead-in и Lead-out : Нет
Заполнение пропущенных сэмплов тишиной : Да
Удаление блоков с тишиной в начале и конце : Нет
При вычислениях CRC использовались нулевые сэмплы : Да
Интерфейс : Установленный внешний ASPI-интерфейс

Выходной формат : Пользовательский кодировщик
Выбранный битрейт : 128 kBit/s
Качество : Высокий
Добавление ID3-тэга : Нет
Утилита сжатия : C:\Program Files\Exact Audio Copy\Flac\flac.exe
Дополнительные параметры : -8 -V %s


TOC извлечённого CD

Трек | Старт | Длительность | Начальный сектор | Конечный сектор
––––––––––––––––––––––––––––––––––-
1 | 0:00.00 | 3:34.17 | 0 | 16066
2 | 3:34.17 | 5:37.46 | 16067 | 41387
3 | 9:11.63 | 6:38.31 | 41388 | 71268
4 | 15:50.19 | 2:48.25 | 71269 | 83893
5 | 18:38.44 | 3:32.05 | 83894 | 99798
6 | 22:10.49 | 5:19.74 | 99799 | 123797
7 | 27:30.48 | 10:29.61 | 123798 | 171033


Характеристики диапазона извлечения и сообщения об ошибках

Выбранный диапазон

Имя файла D:\M.Music\Can - SACD remasters\Flow Motion\Can - Flow Motion.wav

Пиковый уровень 100.0 %
Качество диапазона 100.0 %
CRC теста F8F4FD93
CRC копии F8F4FD93
Копирование… OK

Ошибок не произошло


AccurateRip: сводка

Трек 1 точное извлечение (доверие 3) [2D5E447D]
Трек 2 точное извлечение (доверие 3) [FDAEC0B6]
Трек 3 точное извлечение (доверие 3) [6F2230FB]
Трек 4 точное извлечение (доверие 3) [48B17922]
Трек 5 точное извлечение (доверие 3) [88C1E817]
Трек 6 точное извлечение (доверие 3) [D5EE0793]
Трек 7 точное извлечение (доверие 3) [C2BA45D7]

Все треки извлечены точно

Конец отчёта

AUDIOCHECKER v2.0 beta (build 457) - by Dester - opdester@freemail.hu
~~~~~~~~~~~~~~~~~~~~~~~~~~~~~~~~~~
-=== DO NOT EDIT THIS FILE! ===-

Path: …\1976 - Flow Motion (2006)

01 -=- Can - Flow Motion.flac -=- CDDA (99%)

34512484

[Verification date: 05.04.2011 16:05:45]
[Disc ID: 00094411-00385fa1-4308e807]
Track [ CRC ] Status
01 [2d5e447d] (07/13) Accurately ripped as in pressing(s) #1
02 [fdaec0b6] (07/13) Accurately ripped as in pressing(s) #1
03 [6f2230fb] (08/14) Accurately ripped as in pressing(s) #1
04 [48b17922] (07/13) Accurately ripped as in pressing(s) #1
05 [88c1e817] (07/13) Accurately ripped as in pressing(s) #1
06 [d5ee0793] (07/13) Accurately ripped as in pressing(s) #1
07 [c2ba45d7] (07/13) Accurately ripped as in pressing(s) #1
Offsetted by 634:
01 [fffcb199] (06/13) Accurately ripped as in pressing(s) #2
02 [47656110] (06/13) Accurately ripped as in pressing(s) #2
03 [11a3d13d] (06/14) Accurately ripped as in pressing(s) #2
04 [765de290] (06/13) Accurately ripped as in pressing(s) #2
05 [7bbe69f1] (06/13) Accurately ripped as in pressing(s) #2
06 [0f8e77c1] (06/13) Accurately ripped as in pressing(s) #2
07 [90bd6b73] (06/13) Accurately ripped as in pressing(s) #2

Track [ CRC32 ] [W/O NULL] [ LOG ]
– [F8F4FD93] [E30C9B4C] CRC32
01 [F4FA4E5F] [552CFBC8]
02 [8676FDDC] [D7261E25]
03 [3F754628] [A43DE9B1]
04 [1FA4F111] [880A823F]
05 [B9773171] [50893BB9]
06 [9BB1D2FF] [A92598AC]
07 [C5884A58] [DE32BE2D]

––––––––––––––––––––––––––––––––-

Can - Discography (1969 - 1989) Restored

CD10: Can - Saw Delight (1977)
Krautrock | EAC Rip | Flac(Image) + Cue + Log | MP3 CBR 320Kbps
Scans(400dpi) Included | Spoon, 9318-2 | 2006 | ~ 318 + 119 Mb

Bearing bar none the worst title pun of any Can album – and with titles like Cannibalism, that's saying something – 1977's Saw Delight was the German progressive group's farewell. Clearly, the core quartet had found themselves in a rut by the recording of this album, bringing in percussionist Reebop Kwaku Baah and bassist Rosko Gee from a late-era lineup of Traffic to add a sort of Afro-Cuban jazz feel to their sound. What's frustrating is that this idea could have worked brilliantly, but the execution is all wrong. Instead of the polyrhythmic fireworks expected from a drum duel between Baah and the African-influenced Jaki Liebezeit, Can's senior drummer basically rolls over, keeping time with simple beats while the percussionist takes on the hard work. Similarly, Rosko Gee's handling of the bass duties (which he performs superbly throughout, adding an almost Mingus-like rhythmic intensity to even the loosest songs) frees Holger Czukay to add electronics and sound effects to the proceedings, an opportunity he doesn't make much of. On the up side, the opening "Don't Say No" recalls the controlled fury of earlier tunes like "Moonshake," and side two, consisting of Gee's lengthy, jazz-based composition "Animal Waves" and the lovely instrumental "Fly by Night," is largely excellent, but the two lengthy tracks that close side one are melodically and rhythmically pale in comparison, and there's a tired, somewhat dispirited vibe to the whole album that makes it an unsatisfying send-off to Can's career.

by Stewart Mason, AMG
Can - Discography (1969 - 1989) Restored

Tracklist:

1. Don't Say No (6:36)
2. Sunshine Day and Night (5:52)
3. Call Me (5:51)
4. Animal Waves (15:29)
5. Fly by Night (4:08)

Exact Audio Copy V0.99 prebeta 5 from 4. May 2009

Отчёт EAC об извлечении, выполненном 22. февраля 2010, 19:52

Can / Saw Delight

Дисковод: PIONEER DVD-RW DVR-112D Adapter: 1 ID: 0

Режим чтения : Достоверность
Использование точного потока : Да
Отключение кэша аудио : Да
Использование указателей C2 : Нет

Коррекция смещения при чтении : 48
Способность читать области Lead-in и Lead-out : Нет
Заполнение пропущенных сэмплов тишиной : Да
Удаление блоков с тишиной в начале и конце : Нет
При вычислениях CRC использовались нулевые сэмплы : Да
Интерфейс : Установленный внешний ASPI-интерфейс

Выходной формат : Пользовательский кодировщик
Выбранный битрейт : 128 kBit/s
Качество : Высокий
Добавление ID3-тэга : Нет
Утилита сжатия : C:\Program Files\Exact Audio Copy\Flac\flac.exe
Дополнительные параметры : -8 -V %s


TOC извлечённого CD

Трек | Старт | Длительность | Начальный сектор | Конечный сектор
––––––––––––––––––––––––––––––––––-
1 | 0:00.00 | 6:36.33 | 0 | 29732
2 | 6:36.33 | 5:51.01 | 29733 | 56058
3 | 12:27.34 | 5:52.13 | 56059 | 82471
4 | 18:19.47 | 15:29.67 | 82472 | 152213
5 | 33:49.39 | 4:08.48 | 152214 | 170861


Характеристики диапазона извлечения и сообщения об ошибках

Выбранный диапазон

Имя файла D:\M.Music\Can - SACD remasters\Saw Delight\Can - Saw Delight.wav

Пиковый уровень 99.7 %
Качество диапазона 100.0 %
CRC теста 954B71C1
CRC копии 954B71C1
Копирование… OK

Ошибок не произошло


AccurateRip: сводка

Трек 1 точное извлечение (доверие 3) [C7A77A3A]
Трек 2 точное извлечение (доверие 3) [015EA92A]
Трек 3 точное извлечение (доверие 3) [DC46E017]
Трек 4 точное извлечение (доверие 3) [DDC20786]
Трек 5 точное извлечение (доверие 3) [719DBC5F]

Все треки извлечены точно

Конец отчёта

AUDIOCHECKER v2.0 beta (build 457) - by Dester - opdester@freemail.hu
~~~~~~~~~~~~~~~~~~~~~~~~~~~~~~~~~~
-=== DO NOT EDIT THIS FILE! ===-

Path: …\1977 - Saw Delight (2006)

01 -=- Can - Saw Delight.flac -=- CDDA (99%)

37583476

[Verification date: 05.04.2011 16:06:57]
[Disc ID: 00077f4c-0023c35e-3308e605]
Track [ CRC ] Status
01 [c7a77a3a] (06/15) Accurately ripped as in pressing(s) #2
02 [015ea92a] (06/15) Accurately ripped as in pressing(s) #2
03 [dc46e017] (06/15) Accurately ripped as in pressing(s) #2
04 [ddc20786] (06/15) Accurately ripped as in pressing(s) #2
05 [719dbc5f] (06/15) Accurately ripped as in pressing(s) #2
Offsetted by 634:
01 [168747dc] (09/15) Accurately ripped as in pressing(s) #1
02 [d0b9eb0a] (09/15) Accurately ripped as in pressing(s) #1
03 [043a7ccf] (09/15) Accurately ripped as in pressing(s) #1
04 [288f570e] (09/15) Accurately ripped as in pressing(s) #1
05 [06ff9e85] (09/15) Accurately ripped as in pressing(s) #1

Track [ CRC32 ] [W/O NULL] [ LOG ]
– [954B71C1] [B07F0C85] CRC32
01 [17BA619B] [BD6DC4A8]
02 [345E1BCA] [CC6E31B7]
03 [76D794C1] [338EFB65]
04 [F0966ED3] [4332513A]
05 [7503C044] [36CF3402]

––––––––––––––––––––––––––––––––-

Can - Discography (1969 - 1989) Restored

CD11: Can - Can (1979)
Krautrock | EAC Rip | Flac(Image) + Cue + Log | MP3 CBR 320Kbps
Scans(400dpi) Included | Spoon, 9319-2 | 2006 | ~ 315 + 123 Mb

1979's Can release (later entitled Inner Space) signified an end to the band's bewildering experimental efforts and atmospheric free-for-alls. By this time, Can had worn out their avant-garde style and electronic psychedelia, and with Holger Czukay's credits reading as editor rather than musician, the decline was somewhat incontrovertible. The hiring of percussionist Reebop Kwaku Baah and bass player Rosko Gee two years prior, both of Traffic fame, made the situation a little better, but not enough to rekindle Can's uniquely flavored sound of old. The two opening tracks, "All Gates Open" and "Safe," are straight-ahead pieces, with only fragments of effects and decorative devices aiding Michael Karoli's vocals, but both songs do employ some avid keyboard inundations from Irmin Schmidt. With recognizable guitar riffs taking the place of what used to be outpourings of distortion and rumbling feedback, Can takes on a milder, calmer tone the whole album through. "Ethnological Forgery Series No. 99" is the album's most attractive cut, which is actually an electronic creation of "Can Can," implementing overruns of blurry guitar and sharp synthesizer in order to create the traditional melody. The three minutes of "Can Be" is pure synth and percussion…simple-sounding and far from baffling. Can shows numerous signs that the band was ready to pack it in, and not long after the release of the album, they did. With Czukay and other members departing for solo careers, Can was the group's last collaboration. They re-formed ten years later for Rite Time, but this proved disappointing as well.

by Mike DeGagne, AMG
Can - Discography (1969 - 1989) Restored

Tracklist:

1. All Gates Open (8:19)
2. Safe (8:36)
3. Sunday Jam (4:30)
4. Sodom (5:44)
5. Aspectacle (5:52)
6. E.F.S. No. 99: "Can Can" (3:12)
7. Ping Pong (0:22)
8. Can Be (2:53)

Exact Audio Copy V0.99 prebeta 5 from 4. May 2009

Отчёт EAC об извлечении, выполненном 22. февраля 2010, 19:20

Can / Can

Дисковод: PIONEER DVD-RW DVR-112D Adapter: 1 ID: 0

Режим чтения : Достоверность
Использование точного потока : Да
Отключение кэша аудио : Да
Использование указателей C2 : Нет

Коррекция смещения при чтении : 48
Способность читать области Lead-in и Lead-out : Нет
Заполнение пропущенных сэмплов тишиной : Да
Удаление блоков с тишиной в начале и конце : Нет
При вычислениях CRC использовались нулевые сэмплы : Да
Интерфейс : Установленный внешний ASPI-интерфейс

Выходной формат : Пользовательский кодировщик
Выбранный битрейт : 128 kBit/s
Качество : Высокий
Добавление ID3-тэга : Нет
Утилита сжатия : C:\Program Files\Exact Audio Copy\Flac\flac.exe
Дополнительные параметры : -8 -V %s


TOC извлечённого CD

Трек | Старт | Длительность | Начальный сектор | Конечный сектор
––––––––––––––––––––––––––––––––––-
1 | 0:00.00 | 8:19.15 | 0 | 37439
2 | 8:19.15 | 8:36.15 | 37440 | 76154
3 | 16:55.30 | 4:30.26 | 76155 | 96430
4 | 21:25.56 | 5:44.40 | 96431 | 122270
5 | 27:10.21 | 5:52.16 | 122271 | 148686
6 | 33:02.37 | 3:12.73 | 148687 | 163159
7 | 36:15.35 | 0:22.15 | 163160 | 164824
8 | 36:37.50 | 2:53.42 | 164825 | 177841


Характеристики диапазона извлечения и сообщения об ошибках

Выбранный диапазон

Имя файла D:\M.Music\Can - SACD remasters\Can\Can - Can.wav

Пиковый уровень 100.0 %
Качество диапазона 100.0 %
CRC теста 84A2B2DE
CRC копии 84A2B2DE
Копирование… OK

Ошибок не произошло


AccurateRip: сводка

Трек 1 точное извлечение (доверие 3) [0AFA3D06]
Трек 2 точное извлечение (доверие 3) [DB265B5F]
Трек 3 точное извлечение (доверие 3) [0A4EBD59]
Трек 4 точное извлечение (доверие 3) [226CD327]
Трек 5 точное извлечение (доверие 3) [B130F532]
Трек 6 точное извлечение (доверие 3) [EA409F48]
Трек 7 точное извлечение (доверие 3) [69AA78EF]
Трек 8 точное извлечение (доверие 3) [677CD164]

Все треки извлечены точно

Конец отчёта

AUDIOCHECKER v2.0 beta (build 457) - by Dester - opdester@freemail.hu
~~~~~~~~~~~~~~~~~~~~~~~~~~~~~~~~~~
-=== DO NOT EDIT THIS FILE! ===-

Path: …\1979 - Can (2006)

01 -=- Can - Can.flac -=- CDDA (100%)

86944068

[Verification date: 05.04.2011 16:07:24]
[Disc ID: 000f0ebb-005f6d15-6b094308]
Track [ CRC ] Status
01 [0afa3d06] (07/13) Accurately ripped as in pressing(s) #1
02 [db265b5f] (07/13) Accurately ripped as in pressing(s) #1
03 [0a4ebd59] (07/13) Accurately ripped as in pressing(s) #1
04 [226cd327] (07/13) Accurately ripped as in pressing(s) #1
05 [b130f532] (07/13) Accurately ripped as in pressing(s) #1
06 [ea409f48] (07/13) Accurately ripped as in pressing(s) #1
07 [69aa78ef] (07/13) Accurately ripped as in pressing(s) #1
08 [677cd164] (07/13) Accurately ripped as in pressing(s) #1
Offsetted by 634:
01 [8214dd9a] (06/13) Accurately ripped as in pressing(s) #2
02 [81fffff7] (06/13) Accurately ripped as in pressing(s) #2
03 [210c6951] (06/13) Accurately ripped as in pressing(s) #2
04 [d37b936f] (06/13) Accurately ripped as in pressing(s) #2
05 [18645a20] (06/13) Accurately ripped as in pressing(s) #2
06 [4688ccfe] (06/13) Accurately ripped as in pressing(s) #2
07 [5b05e6f6] (06/13) Accurately ripped as in pressing(s) #2
08 [0daf8a7f] (06/13) Accurately ripped as in pressing(s) #2

Track [ CRC32 ] [W/O NULL] [ LOG ]
– [84A2B2DE] [8CC937CE] CRC32
01 [F342A7C7] [B6131929]
02 [85ADC60D] [D580466F]
03 [1238EFFB] [5C8BCDFD]
04 [BE3645E4] [3DB5AD33]
05 [CD88A08C] [51E8D8AF]
06 [8CD0F912] [1A08D68F]
07 [DC14C31A] [6798692B]
08 [77D35E5E] [DC05D4ED]

––––––––––––––––––––––––––––––––-

Can - Discography (1969 - 1989) Restored

CD12: Can - Delay 1968 (1981)
Krautrock | EAC Rip | Flac(Image) + Cue + Log | MP3 CBR 320Kbps
Scans(400dpi) Included | Spoon, 9316-2 | 2006 | ~ 284 + 110 Mb

Can - Discography (1969 - 1989) Restored

Tracklist:

1. Butterfly (8:20)
2. Pnoom (0:26)
3. Nineteen Century Man (4:26)
4. Thief (5:03)
5. Man Named Joe (3:54)
6. Uphill (6:41)
7. Little Star of Bethlehem (7:09)

Exact Audio Copy V0.99 prebeta 5 from 4. May 2009

Отчёт EAC об извлечении, выполненном 22. февраля 2010, 20:30

Can / Delay 1968

Дисковод: PIONEER DVD-RW DVR-112D Adapter: 1 ID: 0

Режим чтения : Достоверность
Использование точного потока : Да
Отключение кэша аудио : Да
Использование указателей C2 : Нет

Коррекция смещения при чтении : 48
Способность читать области Lead-in и Lead-out : Нет
Заполнение пропущенных сэмплов тишиной : Да
Удаление блоков с тишиной в начале и конце : Нет
При вычислениях CRC использовались нулевые сэмплы : Да
Интерфейс : Установленный внешний ASPI-интерфейс

Выходной формат : Пользовательский кодировщик
Выбранный битрейт : 128 kBit/s
Качество : Высокий
Добавление ID3-тэга : Нет
Утилита сжатия : C:\Program Files\Exact Audio Copy\Flac\flac.exe
Дополнительные параметры : -8 -V %s


TOC извлечённого CD

Трек | Старт | Длительность | Начальный сектор | Конечный сектор
––––––––––––––––––––––––––––––––––-
1 | 0:00.00 | 8:19.46 | 0 | 37470
2 | 8:19.46 | 0:26.10 | 37471 | 39430
3 | 8:45.56 | 4:18.10 | 39431 | 58790
4 | 13:03.66 | 5:03.26 | 58791 | 81541
5 | 18:07.17 | 3:54.05 | 81542 | 99096
6 | 22:01.22 | 6:38.43 | 99097 | 128989
7 | 28:39.65 | 7:06.05 | 128990 | 160944


Характеристики диапазона извлечения и сообщения об ошибках

Выбранный диапазон

Имя файла D:\M.Music\Can - SACD remasters\Delay 1968\Can - Delay 1968.wav

Пиковый уровень 100.0 %
Качество диапазона 100.0 %
CRC теста ACE59900
CRC копии ACE59900
Копирование… OK

Ошибок не произошло


AccurateRip: сводка

Трек 1 точное извлечение (доверие 4) [211762DC]
Трек 2 точное извлечение (доверие 4) [51973254]
Трек 3 точное извлечение (доверие 4) [3C749830]
Трек 4 точное извлечение (доверие 4) [8501D635]
Трек 5 точное извлечение (доверие 4) [0B0CB92C]
Трек 6 точное извлечение (доверие 4) [B47729B2]
Трек 7 точное извлечение (доверие 4) [C27E3A8E]

Все треки извлечены точно

Конец отчёта

AUDIOCHECKER v2.0 beta (build 457) - by Dester - opdester@freemail.hu
~~~~~~~~~~~~~~~~~~~~~~~~~~~~~~~~~~
-=== DO NOT EDIT THIS FILE! ===-

Path: …\1981 - Delay 1968 (2006)

01 -=- Can - Delay 1968.flac -=- CDDA (99%)

69519028

[Verification date: 05.04.2011 16:07:49]
[Disc ID: 0009403b-0037413e-50086107]
Track [ CRC ] Status
01 [211762dc] (07/12) Accurately ripped as in pressing(s) #1
02 [51973254] (07/12) Accurately ripped as in pressing(s) #1
03 [3c749830] (07/12) Accurately ripped as in pressing(s) #1
04 [8501d635] (07/12) Accurately ripped as in pressing(s) #1
05 [0b0cb92c] (07/12) Accurately ripped as in pressing(s) #1
06 [b47729b2] (07/12) Accurately ripped as in pressing(s) #1
07 [c27e3a8e] (07/12) Accurately ripped as in pressing(s) #1
Offsetted by 634:
01 [ad6e970e] (05/12) Accurately ripped as in pressing(s) #2
02 [e43bf572] (05/12) Accurately ripped as in pressing(s) #2
03 [804f1f18] (05/12) Accurately ripped as in pressing(s) #2
04 [15c18463] (05/12) Accurately ripped as in pressing(s) #2
05 [e6122eca] (05/12) Accurately ripped as in pressing(s) #2
06 [6ba1c22e] (05/12) Accurately ripped as in pressing(s) #2
07 [261aa6e2] (05/12) Accurately ripped as in pressing(s) #2

Track [ CRC32 ] [W/O NULL] [ LOG ]
– [ACE59900] [84ACF767] CRC32
01 [4D081E88] [3019BD1A]
02 [13BCF52D] [0D08BF73]
03 [5E735771] [7852B90F]
04 [1C98470B] [09FE4AF0]
05 [8EFE8352] [802795B7]
06 [961A0649] [A90AC088]
07 [C96557D0] [DB84C7CD]

––––––––––––––––––––––––––––––––-

Can - Discography (1969 - 1989) Restored

CD13: Can - Rite Time (1989)
Krautrock | EAC Rip | Flac(Image) + Cue + Log | MP3 CBR 320Kbps
Scans(400dpi) Included | Spoon, 9320-2 | 2006 | ~ 317 + 127 Mb

An unexpected reunion from Can (made even more unexpected by the presence of original singer Malcolm Mooney, who left the band in 1969), 1989's Rite Time is in large part a return to form for the group, especially when one considers how weak Can's last few '70s albums were. Wisely, the quintet doesn't try to replicate the sound they created over two decades before on albums like Monster Movie. Instead, Mooney and company make Rite Time a document of where they're at musically at the time. In short, it's funkier ("Give the Drummer Some"), funnier ("Hoolah Hoolah," which takes that old schoolyard rhyme about how they don't wear pants on the other side of France as the jumping-off point for its melody and lyrics), and more abstractly ambient (the elliptical closer "In the Distance Lies the Future") than before. Rite Time doesn't have the rubbery, polyrhythmic intensity of classic Can albums like Ege Bamyasi or Future Days, but it's a solidly listenable album that, unlike the majority of reunion albums, doesn't soil the memory of the band.

by Stewart Mason, AMG
Can - Discography (1969 - 1989) Restored

Tracklist:

1. On the Beautiful Side of a Romance (7:27)
2. The Withoutlaw Man (4:18)
3. Below This Level (Patient's Song) (3:44)
4. Movin' Right Along (3:28)
5. Like a New Child (7:36)
6. Hoolah Hoolah (4:31)
7. Give the Drummer Some (6:47)
8. In the Distance Lies the Future (4:00)

Exact Audio Copy V0.99 prebeta 5 from 4. May 2009

Отчёт EAC об извлечении, выполненном 22. февраля 2010, 18:59

Can / Rite Time

Дисковод: PIONEER DVD-RW DVR-112D Adapter: 1 ID: 0

Режим чтения : Достоверность
Использование точного потока : Да
Отключение кэша аудио : Да
Использование указателей C2 : Нет

Коррекция смещения при чтении : 48
Способность читать области Lead-in и Lead-out : Нет
Заполнение пропущенных сэмплов тишиной : Да
Удаление блоков с тишиной в начале и конце : Нет
При вычислениях CRC использовались нулевые сэмплы : Да
Интерфейс : Установленный внешний ASPI-интерфейс

Выходной формат : Пользовательский кодировщик
Выбранный битрейт : 128 kBit/s
Качество : Высокий
Добавление ID3-тэга : Нет
Утилита сжатия : C:\Program Files\Exact Audio Copy\Flac\flac.exe
Дополнительные параметры : -8 -V %s


TOC извлечённого CD

Трек | Старт | Длительность | Начальный сектор | Конечный сектор
––––––––––––––––––––––––––––––––––-
1 | 0:09.48 | 7:27.18 | 723 | 34265
2 | 7:36.66 | 4:18.68 | 34266 | 53683
3 | 11:55.59 | 3:44.19 | 53684 | 70502
4 | 15:40.03 | 3:28.08 | 70503 | 86110
5 | 19:08.11 | 7:36.54 | 86111 | 120364
6 | 26:44.65 | 4:31.52 | 120365 | 140741
7 | 31:16.42 | 6:47.05 | 140742 | 171271
8 | 38:03.47 | 4:00.08 | 171272 | 189279


Характеристики диапазона извлечения и сообщения об ошибках

Выбранный диапазон

Имя файла D:\M.Music\Can - SACD remasters\Rite Time\Can - Rite Time.wav

Пиковый уровень 100.0 %
Качество диапазона 100.0 %
CRC теста 3B3684E3
CRC копии 3B3684E3
Копирование… OK

Ошибок не произошло


AccurateRip: сводка

Трек 1 точное извлечение (доверие 4) [65FCA5E1]
Трек 2 точное извлечение (доверие 4) [E74AC3D4]
Трек 3 точное извлечение (доверие 4) [B72ADC72]
Трек 4 точное извлечение (доверие 4) [BB1DC5F8]
Трек 5 точное извлечение (доверие 4) [832A87FF]
Трек 6 точное извлечение (доверие 4) [5959CD0E]
Трек 7 точное извлечение (доверие 4) [F69698A2]
Трек 8 точное извлечение (доверие 4) [55052310]

Все треки извлечены точно

Конец отчёта

AUDIOCHECKER v2.0 beta (build 457) - by Dester - opdester@freemail.hu
~~~~~~~~~~~~~~~~~~~~~~~~~~~~~~~~~~
-=== DO NOT EDIT THIS FILE! ===-

Path: …\1989 - Rite Time (2006)

01 -=- Can - Rite Time.flac -=- CDDA (100%)

125750980

[Verification date: 05.04.2011 16:08:15]
[Disc ID: 000d3a82-00575732-6e09d208]
Pregap length 00:09:48.
Track [ CRC ] Status
01 [65fca5e1] (06/06) Accurately ripped as in pressing(s) #1
02 [e74ac3d4] (06/06) Accurately ripped as in pressing(s) #1
03 [b72adc72] (06/06) Accurately ripped as in pressing(s) #1
04 [bb1dc5f8] (06/06) Accurately ripped as in pressing(s) #1
05 [832a87ff] (06/06) Accurately ripped as in pressing(s) #1
06 [5959cd0e] (06/06) Accurately ripped as in pressing(s) #1
07 [f69698a2] (06/06) Accurately ripped as in pressing(s) #1
08 [55052310] (06/06) Accurately ripped as in pressing(s) #1

Track [ CRC32 ] [W/O NULL] [ LOG ]
– [3B3684E3] [F011DD3F] CRC32
01 [4E74DE86] [406E71CF]
02 [8F6A04B0] [BB7F7D03]
03 [76C25B08] [9D300FF6]
04 [12EDB309] [CEF6250E]
05 [0A54FE38] [9395DC4A]
06 [86336A0F] [663A6BB4]
07 [80DF05FA] [7C91BC88]
08 [7B64E4F0] [CCBCC943]

Can - Discography (1969 - 1989) Restored

All thanks go to IrinaTC
DownloadCan - Discography (1969 - 1989):