Subcategories

Can: Rite Time 1989 -lossless-

Posted By: juanchito
Can: Rite Time  1989 -lossless-

Can: Rite Time 1989 (1994 Spoon CD) lossless
krautrock | EAC Rip, log | Wavpack + cue | Full Artwork, CD sticker | 246 MB


Rite Time is Can's twelfth and last album, considered a reunion album because of the time elapsed since the band's previous album, Can, which had been released in 1979. The album consists of sessions recorded in the South of France in late 1986, edited extensively by the band over the course of subsequent years. Rite Time is also notable in that it features the vocals of the band's original singer, Malcolm Mooney, who had left the group in 1970 after their debut album Monster Movie.

Track listing

1. "On the Beautiful Side of a Romance" 7:27
2. "The Withoutlaw Man" 4:18
3. "Below This Level (Patient's Song)" 3:44
4. "Movin' Right Along" 3:28
5. "Like a New Child" 7:36
6. "Hoolah Hoolah" 4:31
7. "Give the Drummer Some" 6:47
8. "In the Distance Lies the Future" 4:00


Exact Audio Copy V0.99 prebeta 4 from 23. January 2008

EAC extraction logfile from 8. July 2008, 11:42

Can / Rite Time

Used drive : _NEC DVD_RW ND-4570A Adapter: 0 ID: 1

Read mode : Secure
Utilize accurate stream : Yes
Defeat audio cache : Yes
Make use of C2 pointers : No

Read offset correction : 48
Overread into Lead-In and Lead-Out : No
Fill up missing offset samples with silence : Yes
Delete leading and trailing silent blocks : No
Null samples used in CRC calculations : Yes
Used interface : Installed external ASPI interface
Gap handling : Appended to previous track

Used output format : User Defined Encoder
Selected bitrate : 768 kBit/s
Quality : High
Add ID3 tag : Yes
Command line compressor : C:\Program Files\Exact Audio Copy\FLAC\FLAC.EXE
Additional command line options : -6 -V -T "ARTIST=%a" -T "TITLE=%t" -T "ALBUM=%g" -T "DATE=%y" -T "TRACKNUMBER=%n" -T "GENRE=%m" -T "COMMENT=%e" %s -o %d


TOC of the extracted CD

Track | Start | Length | Start sector | End sector
––––––––––––––––––––––––––––-
1 | 0:00.33 | 7:27.12 | 33 | 33569
2 | 7:27.45 | 4:18.63 | 33570 | 52982
3 | 11:46.33 | 3:44.25 | 52983 | 69807
4 | 15:30.58 | 3:28.00 | 69808 | 85407
5 | 18:58.58 | 7:37.00 | 85408 | 119682
6 | 26:35.58 | 4:31.50 | 119683 | 140057
7 | 31:07.33 | 6:47.00 | 140058 | 170582
8 | 37:54.33 | 4:00.25 | 170583 | 188607


Track 1

Filename D:\###\%flac\Can . 1989 . Rite Time\01. On The Beautiful Side Of A Romance [ Can ].wav

Pre-gap length 0:00:02.33

Peak level 75.6 %
Track quality 100.0 %
Test CRC C8FE614E
Copy CRC C8FE614E
Copy OK

Track 2

Filename D:\###\%flac\Can . 1989 . Rite Time\02. The Withoutlaw Man [ Can ].wav

Pre-gap length 0:00:01.74

Peak level 76.4 %
Track quality 100.0 %
Test CRC 716B2CFE
Copy CRC 716B2CFE
Copy OK

Track 3

Filename D:\###\%flac\Can . 1989 . Rite Time\03. Below This Level (Patient's Song) [ Can ].wav

Pre-gap length 0:00:01.28

Peak level 88.3 %
Track quality 100.0 %
Test CRC 823640A0
Copy CRC 823640A0
Copy OK

Track 4

Filename D:\###\%flac\Can . 1989 . Rite Time\04. Movin' Right Along [ Can ].wav

Pre-gap length 0:00:00.26

Peak level 70.7 %
Track quality 100.0 %
Test CRC FDB0B1F2
Copy CRC FDB0B1F2
Copy OK

Track 5

Filename D:\###\%flac\Can . 1989 . Rite Time\05. Like A New Child [ Can ].wav

Pre-gap length 0:00:04.00

Peak level 79.4 %
Track quality 100.0 %
Test CRC 29AF7B28
Copy CRC 29AF7B28
Copy OK

Track 6

Filename D:\###\%flac\Can . 1989 . Rite Time\06. Hoolah Hoolah [ Can ].wav

Pre-gap length 0:00:00.50

Peak level 82.6 %
Track quality 100.0 %
Test CRC 8452DD78
Copy CRC 8452DD78
Copy OK

Track 7

Filename D:\###\%flac\Can . 1989 . Rite Time\07. Give The Drummer Some [ Can ].wav

Pre-gap length 0:00:01.04

Peak level 71.7 %
Track quality 100.0 %
Test CRC 8672FBDB
Copy CRC 8672FBDB
Copy OK

Track 8

Filename D:\###\%flac\Can . 1989 . Rite Time\08. In The Distance Lies The Future [ Can ].wav

Pre-gap length 0:00:02.33

Peak level 72.6 %
Track quality 100.0 %
Test CRC 49077C87
Copy CRC 49077C87
Copy OK

No errors occurred

End of status report


links:

http://rapidshare.com/files/306321121/carite.part1.rar
http://rapidshare.com/files/306334620/carite.part2.rar

pass: juanchito

More Can (lossless)