Subcategories

Can - Soon Over Babaluma (1974) ( Japan remastered 2005)

Posted By: juanchito
Can - Soon Over Babaluma (1974) ( Japan remastered 2005)

Can - Soon Over Babaluma (1974) (Japan remastered 2005)
krautrock | EAC Rip, log | FLAC separate files, no cue | Full Scan 300 dpi | 268 MB


Soon Over Babaluma is a 1974 album by the rock music group Can. This is the band's first album without a lead vocalist who does not play an instrument, following the departure of Damo Suzuki in 1973 during which he married his German girlfriend. The vocals are taken care of by guitarist Michael Karoli and keyboardist Irmin Schmidt. It is also their last album that was created using a two-track recorder.

Can - Soon Over Babaluma (1974) ( Japan remastered 2005)


Tracklist
1. Dizzy Dizzy 5:43
2. Come Sta, La Luna 5:43
3. Splash 7:45
4. Chain Reaction 11:09
5. Quantum Physics 8:31

Exact Audio Copy V0.99 prebeta 4 from 23. January 2008

EAC extraction logfile from 17. February 2010, 16:43

Can / Soon Over Babaluma {Japan Remastered 2005 Reissue}

Used drive : HL-DT-STDVD-RAM GH22NP20 Adapter: 0 ID: 1

Read mode : Secure
Utilize accurate stream : Yes
Defeat audio cache : Yes
Make use of C2 pointers : No

Read offset correction : 102
Overread into Lead-In and Lead-Out : No
Fill up missing offset samples with silence : Yes
Delete leading and trailing silent blocks : No
Null samples used in CRC calculations : Yes
Used interface : Installed external ASPI interface
Gap handling : Appended to previous track

Used output format : User Defined Encoder
Selected bitrate : 128 kBit/s
Quality : High
Add ID3 tag : No
Command line compressor : C:\Program Files\FLAC\flac.exe
Additional command line options : -8 -V -T "ARTIST=%a" -T "TITLE=%t" -T "ALBUM=%g" -T "DATE=%y" -T "TRACKNUMBER=%n" -T "GENRE=%m" -T "COMMENT=EAC Flac 1.1.4 -8" %s


TOC of the extracted CD

Track | Start | Length | Start sector | End sector
––––––––––––––––––––––––––––-
1 | 0:00.00 | 5:40.59 | 0 | 25558
2 | 5:40.59 | 5:42.52 | 25559 | 51260
3 | 11:23.36 | 7:45.61 | 51261 | 86196
4 | 19:09.22 | 11:09.13 | 86197 | 136384
5 | 30:18.35 | 8:31.13 | 136385 | 174722


Track 1

Filename M:\Flacs\Almost ready flacs\3\Can - Soon Over Babaluma (1974) [FLAC] {Japan Remastered 2005 Reissue}\01 - Dizzy Dizzy.wav

Pre-gap length 0:00:02.00

Peak level 98.8 %
Track quality 100.0 %
Test CRC F2FD1607
Copy CRC F2FD1607
Cannot be verified as accurate (confidence 13) [57AD35AB], AccurateRip returned [F95B3DAC]
Copy OK

Track 2

Filename M:\Flacs\Almost ready flacs\3\Can - Soon Over Babaluma (1974) [FLAC] {Japan Remastered 2005 Reissue}\02 - Come Sta, La Luna.wav

Peak level 98.8 %
Track quality 99.9 %
Test CRC 08736CB0
Copy CRC 08736CB0
Cannot be verified as accurate (confidence 13) [694B1421], AccurateRip returned [74861392]
Copy OK

Track 3

Filename M:\Flacs\Almost ready flacs\3\Can - Soon Over Babaluma (1974) [FLAC] {Japan Remastered 2005 Reissue}\03 - Splash.wav

Peak level 98.8 %
Track quality 100.0 %
Test CRC 3019BFA8
Copy CRC 3019BFA8
Cannot be verified as accurate (confidence 13) [0FFEF354], AccurateRip returned [B5478FBF]
Copy OK

Track 4

Filename M:\Flacs\Almost ready flacs\3\Can - Soon Over Babaluma (1974) [FLAC] {Japan Remastered 2005 Reissue}\04 - Chain Reaction.wav

Peak level 98.8 %
Track quality 100.0 %
Test CRC 632AD470
Copy CRC 632AD470
Cannot be verified as accurate (confidence 13) [3E9727A8], AccurateRip returned [E34FFD37]
Copy OK
Track 5

Filename M:\Flacs\Almost ready flacs\3\Can - Soon Over Babaluma (1974) [FLAC] {Japan Remastered 2005 Reissue}\05 - Quantum Physics.wav

Peak level 98.8 %
Track quality 100.0 %
Test CRC B2E7C294
Copy CRC B2E7C294
Cannot be verified as accurate (confidence 13) [F4F721DC], AccurateRip returned [0ADBA0AC]
Copy OK


No tracks could be verified as accurate
You may have a different pressing from the one(s) in the database

No errors occurred

End of status report



links:

http://hotfile.com/dl/33023526/2264ab1/cababaluma.part1.rar.html
http://hotfile.com/dl/33023648/60a0fa5/cababaluma.part2.rar.html


mirror:
http://rapidshare.com/files/363925102/cababaluma.part1.rar
http://rapidshare.com/files/363955853/cababaluma.part2.rar

pass: juanchito


More Can (lossless)