Victoria de Los Angeles - Chants d'Auvergne arr. Joseph Canteloube [repost]

Posted By: tapaz9
Victoria de Los Angeles - Chants d'Auvergne arr. Joseph Canteloube [repost]

Victoria de Los Angeles - Chants d'Auvergne arr. Joseph Canteloube [repost]
Classical | EAC: FLAC+Cue+Log | 1 Cd, Covers | 288 Mb
Label: EMI - Date: 1990

The only possible criticism of this disc would presumably be that it doesn't offer more of Canteloube's evocative, atmospheric (even if probably over-perfumed) songs of the Auvergne. If you had any doubts about the artistic merit of these songs, Victoria de los Angeles's performances with the Lamoreux Orchestra under Jean-Pierre Jacquillat should put them to rest. True, other interpreters have but more charm and innocence into this music, but no one has captured the beauty and atmosphere better. She perfectly captures the achingly wistful tone without ever making any of it sound overly sentimental or vulgar, and I doubt that there exists a more wonderful version of the famous Baïlèro out there, for instance. Even if you doubt that you will enjoy this music, I urge you to give it a try, and even if you are familiar with and cherish one of the many fine other interpretations, the ones at hand consistently seem to reach higher into the heavens and capture even more variety of color than any other I have heard . The orchestral playing is very fine (ver French-sounding, but that is not a disadvantage in this music) and the sound is generally good although not quite up to current hi-fi standards.
G.D. @ Amazon.com
Tracks:

01. Chants d'Auvergne, Vol. 1, series 2, 'La pastrouletta e lou chibalie [0:02:22.68]
02. Songs of the Auvergne for voice & orchestra, Series 1, No 2, 'Bailero' [0:04:49.38]
03. Chants d'Auvergne, Series 1 No. 3 Trois Bourree: L'aio de rotso [0:01:15.06]
04. Chants d'Auvergne, Series 1 No. 3 Trois Bourree: Ound' onoren gorda [0:02:41.01]
05. Chants d'Auvergne, Series 1 No. 3 Trois Bourree: Obal, din lou Limouzi [0:01:53.09]
06. Chants D'Auvergne for voice & orchestra, Series 2 No. 2 'L'Antoueno' [0:03:33.15]
07. Chants d'Auvergne, Series 2 La Pastrouletta e lou Chibalie [0:01:53.37]
08. Chants d'Auvergne, Vol. 1, series 2, 'La delaissado' [0:04:26.66]
09. Chants d'Auvergne, Vol. 1, series 2, 'Lo calhe' [0:02:56.00]
10. Chants d'Auvergne, Vol. 1, series 3, 'Lo fiolaire' [0:02:21.62]
11. Chants d'Auvergne, Vol. 1, series 3, 'Passo pel prat' [0:03:07.40]
12. Chants d'Auvergne, Vol. 1, series 3, 'Lou boussu' [0:02:53.05]
13. Chants d'Auvergne, Vol. 1, series 3, 'Brezairola' [0:02:59.34]
14. Chants d'Auvergne, Vol. 1, series 3, 'Malurous qu'o uno fenno' [0:01:33.46]
15. Songs of the Auvergne for voice & orchestra, Vol 2, series 4: 'Oi Ayai' [0:03:40.05]
16. Songs of the Auvergne for voice & orchestra, Vol 2, series 4 : 'Pour L'Enfant' [0:02:58.03]
17. Songs of the Auvergne for voice & orchestra, Vol 2, series 4: 'Chut Chut' [0:01:59.47]
18. Songs of the Auvergne for voice & orchestra, Vol 2, series 4: 'Pastorale' [0:04:42.26]
19. Songs of the Auvergne for voice & orchestr, Vol 02, Series 04: :Lou Coucut' [0:01:44.02]
20. Songs of the Auvergne for voice & orchestra, Vol 2, series 5: 'Obal Din Lo Coumbelo' [0:06:47.46]
21. Songs of the Auvergne for voice & orchestra, Vol 2, series 5: 'La-Haut Sur le Rocher' [0:04:21.14]
22. Songs of the Auvergne for voice & orchestra, Vol 2, series 5: 'He! Beyla-z-y-Dau Fe' [0:01:49.54]
23. Songs of the Auvergne for voice & orchestra, Vol 2, series 5: 'Te L'Co Te!' [0:00:47.07]
24. Songs of the Auvergne for voice & orchestra, Vol 2, series 5: 'Uno Jionto Postouro' [0:02:53.01]


Exact Audio Copy V1.0 beta 3 from 29. August 2011

EAC extraction logfile from 28. December 2012, 0:31

Victoria de Los Angeles / Chants d'Auvergne arr. Joseph Canteloube

Used drive : TSSTcorpCDDVDW SH-S223C Adapter: 2 ID: 1

Read mode : Secure
Utilize accurate stream : Yes
Defeat audio cache : Yes
Make use of C2 pointers : No

Read offset correction : 697
Overread into Lead-In and Lead-Out : No
Fill up missing offset samples with silence : Yes
Delete leading and trailing silent blocks : No
Null samples used in CRC calculations : Yes
Used interface : Native Win32 interface for Win NT & 2000

Used output format : User Defined Encoder
Selected bitrate : 896 kBit/s
Quality : High
Add ID3 tag : No
Command line compressor : C:\Program Files (x86)\Exact Audio Copy\FLAC\FLAC.EXE
Additional command line options : -V -0 -T "COMMENT=Ripped by Tapaz9" -T "artist=%artist%" -T "title=%title%" -T "album=%albumtitle%" -T "date=%year%" -T "tracknumber=%tracknr%" -T "genre=%genre%" %source%


TOC of the extracted CD

Track | Start | Length | Start sector | End sector
––––––––––––––––––––––––––––-
1 | 0:00.00 | 2:22.68 | 0 | 10717
2 | 2:22.68 | 4:49.38 | 10718 | 32430
3 | 7:12.31 | 1:15.06 | 32431 | 38061
4 | 8:27.37 | 2:41.01 | 38062 | 50137
5 | 11:08.38 | 1:53.09 | 50138 | 58621
6 | 13:01.47 | 3:33.15 | 58622 | 74611
7 | 16:34.62 | 1:53.37 | 74612 | 83123
8 | 18:28.24 | 4:26.66 | 83124 | 103139
9 | 22:55.15 | 2:56.00 | 103140 | 116339
10 | 25:51.15 | 2:21.62 | 116340 | 126976
11 | 28:13.02 | 3:07.40 | 126977 | 141041
12 | 31:20.42 | 2:53.05 | 141042 | 154021
13 | 34:13.47 | 2:59.34 | 154022 | 167480
14 | 37:13.06 | 1:33.46 | 167481 | 174501
15 | 38:46.52 | 3:40.05 | 174502 | 191006
16 | 42:26.57 | 2:58.03 | 191007 | 204359
17 | 45:24.60 | 1:59.47 | 204360 | 213331
18 | 47:24.32 | 4:42.26 | 213332 | 234507
19 | 52:06.58 | 1:44.02 | 234508 | 242309
20 | 53:50.60 | 6:47.46 | 242310 | 272880
21 | 60:38.31 | 4:21.14 | 272881 | 292469
22 | 64:59.45 | 1:49.54 | 292470 | 300698
23 | 66:49.24 | 0:47.07 | 300699 | 304230
24 | 67:36.31 | 2:53.01 | 304231 | 317206


Range status and errors

Selected range

Filename F:\Musique\Cantaloube\Canteloube_SongsOfTheAuvergne_DeLosAngeles\Victoria de Los Angeles - Chants d'Auvergne arr. Joseph Canteloube.wav

Peak level 48.0 %
Extraction speed 14.8 X
Range quality 100.0 %
Copy CRC F863785D
Copy OK

No errors occurred

End of status report

==== Log checksum 53E2B6B1E5514502A5C4922E0572BCB61CE61F41DDB3358C50C9581DEC317FAC ====

Check out my other classical music posts at My Avax blog

No Mirrors and Torrent-uploads please