Subcategories

Canvas Solaris - Discography [6 Albums] (2003-2010)

Posted By: gribovar
Canvas Solaris - Discography [6 Albums] (2003-2010)

Canvas Solaris - Discography [6 Albums] (2003-2010)
EAC Rip | FLAC (image+.cue+log) - 1,8 GB | MP3 CBR 320 kbps (LAME 3.93) - 641 MB | Covers included
Genre: Technical Progressive Metal, Instrumental | RAR 3% Rec. | Label: Tribunal Records, Sensory Records

Canvas Solaris was a band active from 1999 to 2011 that played a complex, experimental and technically sophisticated style of instrumental metal. The early line-up, namely Nathan Sapp (guitars, vocals), Jimmy McCall (bass guitar), Brad Jeffcoat (vocals) and Hunter Ginn (drums), recorded two demos and played several shows in South-Carolina. Jeffcoat and McCall left the band in 2002 and the group added Ben Simpkins (guitar, bass guitar, keyboards) to the line-up and began writing much more experimental instrumental technical, jazz-inspired progressive music. In June 2003 they released their first EP, "Spatial/Design". The group scaled back from live appearances and one year later arrived their first full-length album "Sublimation". "Sublimation" is demonstrating the talent of the members, a fantastic technical metal album heavily influenced by Spiral Architect, Watchtower, Spastic Ink, Cynic, Fates Warning, Rush and even King Crimson and The Mars Volta.

Canvas Solaris - Discography [6 Albums] (2003-2010)

Canvas Solaris - Spatial / Design [EP] (2003)
EAC Rip | FLAC (image+.cue+log) - 217 MB | MP3 CBR 320 kbps (LAME 3.93) - 70 MB | Covers included
Genre: Technical Progressive Metal, Instrumental | RAR 3% Rec. | Label: Tribunal Records (TRB042)

Tracklist:
01. Camera Obscura
02. Cosmic Microwave Background Radiation
03. The Non-Terminating Integer
04. Dark Matter, Accertion Disk, and Interacting Binary Neutron Star in a Self-Reproducing Inflationary Universe

Total time: 26:52

Exact Audio Copy V1.0 beta 3 from 29. August 2011

EAC extraction logfile from 14. December 2011, 12:40

Canvas Solaris / Spatial / Design

Used drive : PLEXTOR CD-R PX-240A Adapter: 0 ID: 0

Read mode : Secure
Utilize accurate stream : Yes
Defeat audio cache : Yes
Make use of C2 pointers : No

Read offset correction : 6
Overread into Lead-In and Lead-Out : No
Fill up missing offset samples with silence : Yes
Delete leading and trailing silent blocks : No
Null samples used in CRC calculations : Yes
Used interface : Installed external ASPI interface

Used output format : Internal WAV Routines
Sample format : 44.100 Hz; 16 Bit; Stereo


TOC of the extracted CD

Track | Start | Length | Start sector | End sector
––––––––––––––––––––––––––––-
1 | 0:00.01 | 6:14.66 | 1 | 28116
2 | 6:14.67 | 7:16.50 | 28117 | 60866
3 | 13:31.42 | 6:12.03 | 60867 | 88769
4 | 19:43.45 | 7:08.34 | 88770 | 120903


Range status and errors

Selected range

Filename Z:\data2\Seeding Archive\Canvas Solaris\2003-Spatial-Design\spatial.wav

Peak level 100.0 %
Extraction speed 6.2 X
Range quality 100.0 %
Test CRC F25975E5
Copy CRC F25975E5
Copy OK

No errors occurred


AccurateRip summary

Track 1 accurately ripped (confidence 2) [5025ED16] (AR v1)
Track 2 accurately ripped (confidence 2) [55753287] (AR v1)
Track 3 accurately ripped (confidence 2) [78E6A8B4] (AR v1)
Track 4 accurately ripped (confidence 2) [B70A4E42] (AR v1)

All tracks accurately ripped

End of status report

==== Log checksum C2FA24E1B017B755F0A1796BF6D90ABE06C23B2C8900992D312A60598A7A5C27 ====

[CUETools log; Date: 03.10.2017 15:57:09; Version: 2.1.4]
Pregap length 00:00:01.
[CTDB TOCID: YcrfWkOyoMXh4WS6NJoEtDWykaA-] found.
Track | CTDB Status
1 | (2/2) Accurately ripped
2 | (2/2) Accurately ripped
3 | (2/2) Accurately ripped
4 | (2/2) Accurately ripped
[AccurateRip ID: 00048ea3-00124964-2d064c04] found.
Track [ CRC | V2 ] Status
01 [5025ed16|c15effff] (2+4/6) Accurately ripped
02 [55753287|6dd34f5a] (2+4/6) Accurately ripped
03 [78e6a8b4|0ed8d1ec] (2+4/6) Accurately ripped
04 [b70a4e42|70caaa1f] (2+4/6) Accurately ripped

Track Peak [ CRC32 ] [W/O NULL] [ LOG ]
– 100,0 [F25975E5] [DD2F5C27] CRC32
01 100,0 [0FB50606] [B1032D1E]
02 100,0 [0D8FA006] [5042B948]
03 100,0 [0B986D25] [2C993428]
04 100,0 [BD1DDEB5] [4BACCCE2]

Canvas Solaris - Discography [6 Albums] (2003-2010)

Canvas Solaris - Sublimation (2004)
EAC Rip | FLAC (image+.cue+log) - 289 MB | MP3 CBR 320 kbps (LAME 3.93) - 98 MB | Covers included
Genre: Technical Progressive Metal, Instrumental | RAR 3% Rec. | Label: Tribunal Records (TRB057)

Tracklist:
01. Cosmopolysyndeton
02. Spheres in Design
03. When Solar Winds Collide
04. Cyclotron Emission
05. Syzygial Epiphany
06. Ekstatik Parataxis (The New Measure)
07. Sublimation

Total time: 38:51

Exact Audio Copy V1.0 beta 3 from 29. August 2011

EAC extraction logfile from 16. December 2011, 18:07

Canvas Solaris / Sublimation

Used drive : PLEXTOR CD-R PX-240A Adapter: 3 ID: 1

Read mode : Secure
Utilize accurate stream : Yes
Defeat audio cache : Yes
Make use of C2 pointers : No

Read offset correction : 6
Overread into Lead-In and Lead-Out : No
Fill up missing offset samples with silence : Yes
Delete leading and trailing silent blocks : No
Null samples used in CRC calculations : Yes
Used interface : Installed external ASPI interface

Used output format : Internal WAV Routines
Sample format : 44.100 Hz; 16 Bit; Stereo


TOC of the extracted CD

Track | Start | Length | Start sector | End sector
––––––––––––––––––––––––––––-
1 | 0:00.00 | 3:22.51 | 0 | 15200
2 | 3:22.51 | 4:28.02 | 15201 | 35302
3 | 7:50.53 | 7:33.44 | 35303 | 69321
4 | 15:24.22 | 3:51.00 | 69322 | 86646
5 | 19:15.22 | 6:21.05 | 86647 | 115226
6 | 25:36.27 | 5:01.01 | 115227 | 137802
7 | 30:37.28 | 8:14.05 | 137803 | 174857


Range status and errors

Selected range

Filename Z:\data\mp3\Seeding Archive\Canvas Solaris\2004-Sublimation\sublimation.wav

Peak level 100.0 %
Extraction speed 7.9 X
Range quality 100.0 %
Test CRC E944A370
Copy CRC E944A370
Copy OK

No errors occurred


AccurateRip summary

Track 1 accurately ripped (confidence 6) [EDA6AF6C] (AR v1)
Track 2 accurately ripped (confidence 6) [9E7FF470] (AR v1)
Track 3 accurately ripped (confidence 6) [3FFE05C4] (AR v1)
Track 4 accurately ripped (confidence 6) [32CE9FF5] (AR v1)
Track 5 accurately ripped (confidence 6) [96C45FB3] (AR v1)
Track 6 accurately ripped (confidence 6) [79247A4B] (AR v1)
Track 7 accurately ripped (confidence 6) [F3A77501] (AR v1)

All tracks accurately ripped

End of status report

==== Log checksum 9E4939236EA1B11E6629073A25B6EEA5EF1E6BDEE93FC367D878E6F2C4FEDCF9 ====

[CUETools log; Date: 03.10.2017 15:58:47; Version: 2.1.4]
[CTDB TOCID: q_UrCfvw.YxScs.VDnhmm0B_K4g-] found.
Track | CTDB Status
1 | (4/9) Accurately ripped
2 | (4/9) Accurately ripped
3 | (4/9) Accurately ripped
4 | (4/9) Accurately ripped
5 | (4/9) Accurately ripped
6 | (4/9) Accurately ripped
7 | (4/9) Accurately ripped
[AccurateRip ID: 0009adf9-003b88f2-5a091b07] found.
Track [ CRC | V2 ] Status
01 [eda6af6c|a91c769b] (6+3/9) Accurately ripped
02 [9e7ff470|b4792602] (6+3/9) Accurately ripped
03 [3ffe05c4|5b0469ef] (6+3/9) Accurately ripped
04 [32ce9ff5|776807f1] (6+3/9) Accurately ripped
05 [96c45fb3|ae692b8a] (6+3/9) Accurately ripped
06 [79247a4b|d8d01c8e] (6+3/9) Accurately ripped
07 [f3a77501|36bdb8cf] (6+3/9) Accurately ripped

Track Peak [ CRC32 ] [W/O NULL] [ LOG ]
– 100,0 [E944A370] [EFAE8B1D] CRC32
01 100,0 [C83D8E41] [FC4F0D7D]
02 100,0 [88C9388B] [A0674FAA]
03 100,0 [35946BF9] [839D82BF]
04 100,0 [F366A5E1] [D154FA4E]
05 100,0 [D96ACF09] [C2A40D77]
06 100,0 [9C0A54E6] [C73C1ADB]
07 100,0 [2CC9877D] [31083FEA]

Canvas Solaris - Discography [6 Albums] (2003-2010)

Canvas Solaris - Penumbra Diffuse (2006)
EAC Rip | FLAC (image+.cue+log) - 328 MB | MP3 CBR 320 kbps (LAME 3.93) - 119 MB | Covers included
Genre: Technical Progressive Metal, Instrumental | RAR 3% Rec. | Label: Sensory Records (SR3030)

Tracklist:
01. Panoramic Long - Range Vertigo
02. Horizontal Radiant
03. Accidents in Mutual Silence
04. Vaihayasa
05. To Fracture
06. Psychotropic Resonance
07. Luminescence

Total time: 48:42

Exact Audio Copy V1.0 beta 3 from 29. August 2011

EAC extraction logfile from 14. December 2011, 13:21

Canvas Solaris / Penumbra Diffuse

Used drive : PLEXTOR CD-R PX-240A Adapter: 0 ID: 0

Read mode : Secure
Utilize accurate stream : Yes
Defeat audio cache : Yes
Make use of C2 pointers : No

Read offset correction : 6
Overread into Lead-In and Lead-Out : No
Fill up missing offset samples with silence : Yes
Delete leading and trailing silent blocks : No
Null samples used in CRC calculations : Yes
Used interface : Installed external ASPI interface

Used output format : Internal WAV Routines
Sample format : 44.100 Hz; 16 Bit; Stereo


TOC of the extracted CD

Track | Start | Length | Start sector | End sector
––––––––––––––––––––––––––––-
1 | 0:00.00 | 3:54.38 | 0 | 17587
2 | 3:54.38 | 11:24.59 | 17588 | 68946
3 | 15:19.22 | 4:18.16 | 68947 | 88312
4 | 19:37.38 | 4:22.13 | 88313 | 107975
5 | 23:59.51 | 7:45.68 | 107976 | 142918
6 | 31:45.44 | 4:56.21 | 142919 | 165139
7 | 36:41.65 | 12:00.50 | 165140 | 219189


Range status and errors

Selected range

Filename Z:\data2\Seeding Archive\Canvas Solaris\2006-Penumbra Diffuse\penumbra.wav

Peak level 100.0 %
Extraction speed 2.8 X
Range quality 100.0 %
Test CRC A4758F95
Copy CRC A4758F95
Copy OK

No errors occurred


AccurateRip summary

Track 1 accurately ripped (confidence 13) [AC171D6D] (AR v1)
Track 2 accurately ripped (confidence 13) [2206B4DB] (AR v1)
Track 3 accurately ripped (confidence 13) [63816608] (AR v1)
Track 4 accurately ripped (confidence 13) [9F761FC9] (AR v1)
Track 5 accurately ripped (confidence 13) [2E3BCC55] (AR v1)
Track 6 accurately ripped (confidence 13) [B4328AF9] (AR v1)
Track 7 accurately ripped (confidence 12) [558FCD77] (AR v1)

All tracks accurately ripped

End of status report

==== Log checksum 01B3DFE7DF12734E9D7C2C0F363B2B9FC6077D54C144DF1F83007800877FA6E5 ====

[CUETools log; Date: 03.10.2017 15:59:43; Version: 2.1.4]
[CTDB TOCID: RrzVbbRd86SZvYnYFmY3f6TlRpI-] found.
Track | CTDB Status
1 | (13/13) Accurately ripped
2 | (13/13) Accurately ripped
3 | (13/13) Accurately ripped
4 | (13/13) Accurately ripped
5 | (13/13) Accurately ripped
6 | (13/13) Accurately ripped
7 | (13/13) Accurately ripped
[AccurateRip ID: 000c5c59-004acd14-4d0b6a07] found.
Track [ CRC | V2 ] Status
01 [ac171d6d|9a52c13a] (14+08/22) Accurately ripped
02 [2206b4db|ed8b2920] (14+08/22) Accurately ripped
03 [63816608|127960d5] (14+08/22) Accurately ripped
04 [9f761fc9|f0820102] (14+08/22) Accurately ripped
05 [2e3bcc55|c6ef9c40] (14+08/22) Accurately ripped
06 [b4328af9|f1069411] (14+08/22) Accurately ripped
07 [558fcd77|81551cd0] (13+08/21) Accurately ripped

Track Peak [ CRC32 ] [W/O NULL] [ LOG ]
– 100,0 [A4758F95] [D7FDAD6B] CRC32
01 100,0 [2D2C3F20] [DEA367CB]
02 100,0 [A35BB4D2] [4DD626E0]
03 100,0 [15B3CF23] [329CEF25]
04 100,0 [7E339D7C] [15F3754D]
05 100,0 [2C879AAE] [85FAB6F7]
06 100,0 [DD0222CE] [10B52252]
07 100,0 [07C9296A] [BD287BAC]

Canvas Solaris - Discography [6 Albums] (2003-2010)

Canvas Solaris - Cortical Tectonics (2007)
EAC Rip | FLAC (image+.cue+log) - 327 MB | MP3 CBR 320 kbps (LAME 3.93) - 111 MB | Covers included
Genre: Technical Progressive Metal, Instrumental | RAR 3% Rec. | Label: Sensory Records (SR3037)

Tracklist:
01. Berserker Hypothesis
02. Sinusoid Mirage
03. Interface
04. Gamma Knife
05. Rhizome
06. Reticular Consciousness

Total time: 46:02

Exact Audio Copy V1.0 beta 3 from 29. August 2011

EAC extraction logfile from 14. December 2011, 12:40

Canvas Solaris / Cortical Tectonics

Used drive : PLEXTOR DVDR PX-760A Adapter: 0 ID: 1

Read mode : Secure
Utilize accurate stream : Yes
Defeat audio cache : Yes
Make use of C2 pointers : No

Read offset correction : 30
Overread into Lead-In and Lead-Out : Yes
Fill up missing offset samples with silence : Yes
Delete leading and trailing silent blocks : No
Null samples used in CRC calculations : Yes
Used interface : Installed external ASPI interface

Used output format : Internal WAV Routines
Sample format : 44.100 Hz; 16 Bit; Stereo


TOC of the extracted CD

Track | Start | Length | Start sector | End sector
––––––––––––––––––––––––––––-
1 | 0:00.00 | 3:55.47 | 0 | 17671
2 | 3:55.47 | 6:58.60 | 17672 | 49081
3 | 10:54.32 | 5:41.72 | 49082 | 74728
4 | 16:36.29 | 8:02.34 | 74729 | 110912
5 | 24:38.63 | 4:19.19 | 110913 | 130356
6 | 28:58.07 | 17:03.73 | 130357 | 207154


Range status and errors

Selected range

Filename Z:\data2\Seeding Archive\Canvas Solaris\2007-Cortical Tectonics\cortical.wav

Peak level 100.0 %
Extraction speed 7.4 X
Range quality 100.0 %
Test CRC 9FDACEEF
Copy CRC 9FDACEEF
Copy OK

No errors occurred


AccurateRip summary

Track 1 accurately ripped (confidence 6) [6E95182A] (AR v1)
Track 2 accurately ripped (confidence 6) [8784EEAD] (AR v1)
Track 3 accurately ripped (confidence 6) [397F95C7] (AR v1)
Track 4 accurately ripped (confidence 6) [7954DCCD] (AR v1)
Track 5 accurately ripped (confidence 6) [9379AA14] (AR v1)
Track 6 accurately ripped (confidence 6) [5662557E] (AR v1)

All tracks accurately ripped

End of status report

==== Log checksum 8A15B6E39CBC798C3E248CF78D5D9E6177F3916FECCCCFD3FE65D6367F1D6F20 ====

[CUETools log; Date: 03.10.2017 16:00:47; Version: 2.1.4]
[CTDB TOCID: jXpvYaqZVOV7XyI9R0UOsmGrteo-] found.
Track | CTDB Status
1 | (13/13) Accurately ripped
2 | (13/13) Accurately ripped
3 | (13/13) Accurately ripped
4 | (13/13) Accurately ripped
5 | (13/13) Accurately ripped
6 | (13/13) Accurately ripped
[AccurateRip ID: 00090054-0031decb-520aca06] found.
Track [ CRC | V2 ] Status
01 [6e95182a|1976a97b] (06+08/14) Accurately ripped
02 [8784eead|bc884a67] (06+08/14) Accurately ripped
03 [397f95c7|4f48e6af] (06+08/14) Accurately ripped
04 [7954dccd|e997ab82] (06+08/14) Accurately ripped
05 [9379aa14|3d467562] (06+07/13) Accurately ripped
06 [5662557e|6771f9c8] (06+07/13) Accurately ripped

Track Peak [ CRC32 ] [W/O NULL] [ LOG ]
– 100,0 [9FDACEEF] [E6CD9721] CRC32
01 100,0 [D402444F] [AE4086BD]
02 100,0 [EFD26A02] [4325D02B]
03 100,0 [E58FF5B6] [9D38AEB9]
04 100,0 [276C1752] [B813ED43]
05 100,0 [BDA1690B] [172DEE2F]
06 100,0 [1CD9BC62] [786735D2]

Canvas Solaris - Discography [6 Albums] (2003-2010)

Canvas Solaris - The Atomized Dream (2008)
EAC Rip | FLAC (image+.cue+log) - 318 MB | MP3 CBR 320 kbps (LAME 3.93) - 116 MB | Covers included
Genre: Technical Progressive Metal, Instrumental | RAR 3% Rec. | Label: Sensory Records (SR3043)

Tracklist:
01. The Binaural Beat
02. Reflections Carried to Mirror
03. Chromatic Dusk
04. Patterns Spiral Into Swarm
05. Heat Distortion Manifest
06. Photovoltaic
07. Solar Droid
08. The Unknowable and Defeating Glow

Total time: 47:25

Exact Audio Copy V1.0 beta 3 from 29. August 2011

EAC extraction logfile from 14. December 2011, 13:50

Canvas Solaris / The Atomized Dream

Used drive : PLEXTOR CD-R PX-240A Adapter: 0 ID: 0

Read mode : Secure
Utilize accurate stream : Yes
Defeat audio cache : Yes
Make use of C2 pointers : No

Read offset correction : 6
Overread into Lead-In and Lead-Out : No
Fill up missing offset samples with silence : Yes
Delete leading and trailing silent blocks : No
Null samples used in CRC calculations : Yes
Used interface : Installed external ASPI interface

Used output format : Internal WAV Routines
Sample format : 44.100 Hz; 16 Bit; Stereo


TOC of the extracted CD

Track | Start | Length | Start sector | End sector
––––––––––––––––––––––––––––-
1 | 0:00.00 | 5:09.61 | 0 | 23235
2 | 5:09.61 | 4:20.02 | 23236 | 42737
3 | 9:29.63 | 3:53.01 | 42738 | 60213
4 | 13:22.64 | 4:54.63 | 60214 | 82326
5 | 18:17.52 | 5:41.53 | 82327 | 107954
6 | 23:59.30 | 8:32.62 | 107955 | 146416
7 | 32:32.17 | 4:33.35 | 146417 | 166926
8 | 37:05.52 | 10:19.56 | 166927 | 213407


Range status and errors

Selected range

Filename Z:\data2\Seeding Archive\Canvas Solaris\2008-The Atomized Dream\atomized.wav

Peak level 100.0 %
Extraction speed 4.4 X
Range quality 100.0 %
Test CRC 3EC8C94E
Copy CRC 3EC8C94E
Copy OK

No errors occurred


AccurateRip summary

Track 1 accurately ripped (confidence 6) [FE9F1BC3] (AR v1)
Track 2 accurately ripped (confidence 6) [1408C6B3] (AR v1)
Track 3 accurately ripped (confidence 6) [0A754B91] (AR v1)
Track 4 accurately ripped (confidence 6) [0786B4D7] (AR v1)
Track 5 accurately ripped (confidence 6) [C210912B] (AR v1)
Track 6 accurately ripped (confidence 6) [032F040A] (AR v1)
Track 7 accurately ripped (confidence 6) [73B78ED6] (AR v1)
Track 8 accurately ripped (confidence 6) [72366DFF] (AR v1)

All tracks accurately ripped

End of status report

==== Log checksum DA9F7DBCF94C2094715708DCED1E3E117EAEEB74F8232D2C79A60EE3BDE0D8DF ====

[CUETools log; Date: 03.10.2017 16:01:54; Version: 2.1.4]
[CTDB TOCID: CcJjJB2TF17yShnTJ6zsVVst_Pk-] found.
Track | CTDB Status
1 | (9/9) Accurately ripped
2 | (9/9) Accurately ripped
3 | (9/9) Accurately ripped
4 | (9/9) Accurately ripped
5 | (8/9) Accurately ripped
6 | (9/9) Accurately ripped
7 | (9/9) Accurately ripped
8 | (9/9) Accurately ripped
[AccurateRip ID: 000cddd6-0057d40b-5d0b1d08] found.
Track [ CRC | V2 ] Status
01 [fe9f1bc3|96df03c1] (06+06/12) Accurately ripped
02 [1408c6b3|1408c5aa] (06+06/12) Accurately ripped
03 [0a754b91|5f50e20a] (06+06/12) Accurately ripped
04 [0786b4d7|d0ea139d] (06+06/12) Accurately ripped
05 [c210912b|757c7ec6] (06+06/12) Accurately ripped
06 [032f040a|d343169c] (06+06/12) Accurately ripped
07 [73b78ed6|a4965fb5] (06+06/12) Accurately ripped
08 [72366dff|0ada74ac] (06+06/12) Accurately ripped

Track Peak [ CRC32 ] [W/O NULL] [ LOG ]
– 100,0 [3EC8C94E] [EE5ADA34] CRC32
01 99,9 [45005862] [E7146790]
02 99,5 [810385DD] [58EB80ED]
03 100,0 [49213D36] [6C3EDB51]
04 99,9 [FF6E9EB8] [145FF572]
05 99,7 [05772F0E] [59EEBB02]
06 100,0 [2FD49AD7] [5844B800]
07 99,6 [E1D65D2E] [724BE134]
08 100,0 [4FF109AF] [4F1CA38A]

Canvas Solaris - Discography [6 Albums] (2003-2010)

Canvas Solaris - Irradiance (2010) (Repost)
EAC Rip | FLAC (image+.cue+log) - 329 MB | MP3 CBR 320 kbps (LAME 3.93) - 127 MB | Covers included
Genre: Technical Progressive Metal, Instrumental | RAR 3% Rec. | Label: Sensory Records (SR3054)

Tracklist:
01. Adaptive Optics
02. Conveyance of Flux
03. The Horizon Feasts on Stars
04. Glacier
05. Accelerated Testing Phase
06. Threads of Dead Space
07. Soliton (Emergence From Dispersion)
08. Vapor Chasm
09. Null Proximity

Total time: 44:07

Exact Audio Copy V1.0 beta 3 from 29. August 2011

EAC extraction logfile from 14. December 2011, 13:21

Canvas Solaris / Irradiance

Used drive : PLEXTOR DVDR PX-760A Adapter: 0 ID: 1

Read mode : Secure
Utilize accurate stream : Yes
Defeat audio cache : Yes
Make use of C2 pointers : No

Read offset correction : 30
Overread into Lead-In and Lead-Out : Yes
Fill up missing offset samples with silence : Yes
Delete leading and trailing silent blocks : No
Null samples used in CRC calculations : Yes
Used interface : Installed external ASPI interface

Used output format : Internal WAV Routines
Sample format : 44.100 Hz; 16 Bit; Stereo


TOC of the extracted CD

Track | Start | Length | Start sector | End sector
––––––––––––––––––––––––––––-
1 | 0:00.00 | 4:15.45 | 0 | 19169
2 | 4:15.45 | 5:40.69 | 19170 | 44738
3 | 9:56.39 | 5:09.65 | 44739 | 67978
4 | 15:06.29 | 6:37.48 | 67979 | 97801
5 | 21:44.02 | 3:08.17 | 97802 | 111918
6 | 24:52.19 | 4:00.60 | 111919 | 129978
7 | 28:53.04 | 5:01.37 | 129979 | 152590
8 | 33:54.41 | 3:48.16 | 152591 | 169706
9 | 37:42.57 | 6:25.02 | 169707 | 198583


Range status and errors

Selected range

Filename Z:\data2\Seeding Archive\Canvas Solaris\2010-Irradiance\Irradiance.wav

Peak level 98.9 %
Extraction speed 2.4 X
Range quality 100.0 %
Test CRC 309AD2AB
Copy CRC 309AD2AB
Copy OK

No errors occurred


AccurateRip summary

Track 1 accurately ripped (confidence 4) [E8D477EC] (AR v1)
Track 2 accurately ripped (confidence 4) [6044DA1D] (AR v1)
Track 3 accurately ripped (confidence 4) [56687B50] (AR v1)
Track 4 accurately ripped (confidence 4) [4DD0DCAA] (AR v1)
Track 5 accurately ripped (confidence 4) [B9CFE5AD] (AR v1)
Track 6 accurately ripped (confidence 4) [1294F6AF] (AR v1)
Track 7 accurately ripped (confidence 4) [71257380] (AR v1)
Track 8 accurately ripped (confidence 4) [1B73C109] (AR v1)
Track 9 accurately ripped (confidence 4) [88490F30] (AR v1)

All tracks accurately ripped

End of status report

==== Log checksum F0F96237FEC2AD469FB4F1596E78B4A0014EDF6C9FAD1B3A041D2A5CD9B69991 ====

[CUETools log; Date: 03.10.2017 16:03:20; Version: 2.1.4]
[CTDB TOCID: LX_NjNPr2t5nNZ1h6uEvpMbMoJw-] found.
Track | CTDB Status
1 | (13/13) Accurately ripped
2 | (13/13) Accurately ripped
3 | (13/13) Accurately ripped
4 | (13/13) Accurately ripped
5 | (13/13) Accurately ripped
6 | (13/13) Accurately ripped
7 | (13/13) Accurately ripped
8 | (13/13) Accurately ripped
9 | (13/13) Accurately ripped
[AccurateRip ID: 000f24d6-006e9b8e-7c0a5709] found.
Track [ CRC | V2 ] Status
01 [e8d477ec|2a6e4e2c] (04+08/12) Accurately ripped
02 [6044da1d|8cd04b44] (04+08/12) Accurately ripped
03 [56687b50|a76fb471] (04+08/12) Accurately ripped
04 [4dd0dcaa|8b62757b] (04+08/12) Accurately ripped
05 [b9cfe5ad|f52c947a] (04+08/12) Accurately ripped
06 [1294f6af|e65597a1] (04+08/12) Accurately ripped
07 [71257380|801682be] (04+08/12) Accurately ripped
08 [1b73c109|e1c7fa62] (04+08/12) Accurately ripped
09 [88490f30|5fdd0d4d] (04+08/12) Accurately ripped

Track Peak [ CRC32 ] [W/O NULL] [ LOG ]
– 98,9 [309AD2AB] [CB6FD27B] CRC32
01 98,9 [E1C78EFC] [6A11E025]
02 98,9 [70CE6DCE] [F2350A9A]
03 98,9 [4BF11E38] [4959EA2D]
04 98,9 [5CC0DB94] [C5267C6C]
05 98,9 [D2F3DC1F] [1B750CE2]
06 98,9 [CACB9C6B] [B39AB585]
07 98,9 [632B2E02] [29E61F3B]
08 98,8 [D65AC2E4] [4B5FE422]
09 98,9 [7E699D27] [3376FE7B]

Thanks to hexonut