Subcategories

Caravan - The World Is Yours: The Anthology 1968-1976 (2010) 4 CD Box Set [Re-Up]

Posted By: Designol
Caravan - The World Is Yours: The Anthology 1968-1976 (2010) 4 CD Box Set [Re-Up]

Caravan - The World Is Yours: The Anthology 1968-1976 (2010) 4 CD Box Set
EAC | FLAC | Image (Cue&Log) ~ 1.75 Gb | Mp3 (CBR320) ~ 700 Mb | Scans ~ 363 Mb
Label: Decca Records, Universal Music | # 532 459-5 | Time: 05:03:20
Art Rock, Prog-Rock, Jazz-Rock, Canterbury Scene, Psychedelic Rock

The World Is Yours - The Anthology 1968-1976 is an exhaustive remastered four CD box set from Canterbury sound band Caravan. The set includes previously unreleased studio recordings, album tracks, rare single mixes, BBC recordings and out-takes,a s well as a lavish book featuring an essay and previously unseen photographs plus sleeve notes by Mark Powell.

Although they are intricately entwined into the DNA of that sub-genre of progressive music known as the Canterbury scene, there’s nevertheless always been something of the “bridesmaid but never the bride” syndrome about Caravan.

Quite why this should be is slightly baffling given that their sound has always been on the light and accessible end of the progressive rock spectrum. Their straightforward songs and bright, unfussy noodling was the sunshine to the oft-dark complexities of their close Canterbury cousins, Soft Machine.

Whereas the Softs veered far from their shared pop roots, ploughing an acerbic, often ground-breaking furrow into improvisation, jazz-rock fusion and beyond, Caravan pretty much bumbled along on their old straight track in a benign, slightly sleepy but agreeable manner.

This handsomely appointed four-CD box set, whilst being skimpy on unreleased or rare material (only boasting a couple of previously-unreleased extras), offers a pleasantly winding stroll through their classic period, from which 1971’s In The Land of Grey and Pink remains their most enduring work.

All but one of its original studio tracks are presented here; filled with flutes, fuzz-pedalled organ and dreamy vocals about girls, freedom, and finding yourself, these agreeable, sun-dappled pastoral tunes are as English as Elgar.

Gracefully structured long-form suites were essential ingredients in the Caravan brew, but whilst Nine Feet Underground (1971), Nothing At All (1972) Memory Lain (1973) and several other notable epics all clocked up the minutes, these were genteel, subtle undertakings rather than vulgar exhibitions of technique.

Though they recruited a dedicated following it was never wide or deep enough to deliver them real commercial success. It always seemed that Caravan were only ever one album away cracking the market, but much to the frustration of the band and its supporters that happy event always eluded them.

At a time when bands like ELP seemed hell-bent on world domination via bombastic rock symphonics, Caravan generally opted for a kinder, whimsical non-competitive mode of expression when soloing, and perhaps it was precisely the lack of extrovert showmanship that prevented them from attracting wider attention.

Yet, as this set demonstrates, given that they sound a good deal less-arch and cliché-free than many of their more illustrious and fêted contemporaries, this was probably a good thing. A worthy introduction to a likeable but often unfairly neglected English institution.

Review by Sid Smith, BBC Music

Caravan - The World Is Yours: The Anthology 1968-1976 (2010) 4 CD Box Set [Re-Up]





Caravan - The World Is Yours: The Anthology 1968-1976 (2010) 4 CD Box Set [Re-Up]


CD1: (1:14:13)

01. Place Of My Own (4:03)
02. Magic Man (4:02)
03. Love Song With Flute (4:11)
04. Grandma's Lawn (3:25)
05. Cecil Rons (4:08)
06. Where But For Caravan Would I? (9:02)
07. A Day In The Life Of Maurice Haylett (5:07)
08. If I Could Do It All Over Again, I'd Do It All Over You (3:07)
09. Clipping The Eighth (Hello Hello Demo) (3:12)
10. And I Wish I Were Stoned / Don't Worry (8:18)
11. Asforteri (1:21)
12. Can't Be Long Now - Francoise - For Richard - Warlock (14:22)
13. With An Ear To The Ground You Can Make It (9:54)


Exact Audio Copy V1.0 beta 1 from 15. November 2010

EAC extraction logfile from 6. September 2012, 17:39

Caravan / The World Is Yours - An Anthology 1968-1976 - Disc 1

Used drive : Optiarc DVD RW AD-7263S Adapter: 3 ID: 0

Read mode : Secure
Utilize accurate stream : Yes
Defeat audio cache : Yes
Make use of C2 pointers : No

Read offset correction : 48
Overread into Lead-In and Lead-Out : No
Fill up missing offset samples with silence : Yes
Delete leading and trailing silent blocks : No
Null samples used in CRC calculations : Yes
Used interface : Native Win32 interface for Win NT & 2000

Used output format : User Defined Encoder
Selected bitrate : 32 kBit/s
Quality : High
Add ID3 tag : No
Command line compressor : C:\Program Files\Exact Audio Copy\Flac\flac.exe
Additional command line options : -T "DATE=%y" -T "GENRE=%m" -8 -V %s


TOC of the extracted CD

Track | Start | Length | Start sector | End sector
––––––––––––––––––––––––––––-
1 | 0:00.00 | 4:03.17 | 0 | 18241
2 | 4:03.17 | 4:02.30 | 18242 | 36421
3 | 8:05.47 | 4:10.72 | 36422 | 55243
4 | 12:16.44 | 3:24.70 | 55244 | 70613
5 | 15:41.39 | 4:08.13 | 70614 | 89226
6 | 19:49.52 | 9:01.63 | 89227 | 129864
7 | 28:51.40 | 5:06.53 | 129865 | 152867
8 | 33:58.18 | 3:07.37 | 152868 | 166929
9 | 37:05.55 | 3:12.15 | 166930 | 181344
10 | 40:17.70 | 8:17.54 | 181345 | 218673
11 | 48:35.49 | 1:21.11 | 218674 | 224759
12 | 49:56.60 | 14:22.03 | 224760 | 289412
13 | 64:18.63 | 9:54.33 | 289413 | 333995


Range status and errors

Selected range

Filename C:\Documents and Settings\maxim\Мои документы\Мои рисунки\Caravan - The World Is Yours - An Anthology 1968-1976 - Disc 1.wav

Peak level 98.8 %
Extraction speed 0.6 X
Range quality 100.0 %
Test CRC DA42BE57
Copy CRC DA42BE57
Copy OK

No errors occurred


AccurateRip summary

Track 1 accurately ripped (confidence 3) [6C359ADF]
Track 2 accurately ripped (confidence 3) [CCAB05AC]
Track 3 accurately ripped (confidence 3) [1AB13A05]
Track 4 accurately ripped (confidence 3) [6B056B9C]
Track 5 accurately ripped (confidence 3) [F38B43BF]
Track 6 accurately ripped (confidence 3) [D79B77AA]
Track 7 accurately ripped (confidence 3) [FEF0CF19]
Track 8 accurately ripped (confidence 3) [89912717]
Track 9 accurately ripped (confidence 3) [432056EA]
Track 10 accurately ripped (confidence 3) [BE08C6EE]
Track 11 accurately ripped (confidence 3) [54D10BD3]
Track 12 accurately ripped (confidence 3) [6F962A3C]
Track 13 accurately ripped (confidence 3) [59BB2259]

All tracks accurately ripped

End of status report

==== Log checksum C07F8A3D075B9E09AAADB537E6302CE6AA2A242171F37FDDA2219B8C9A8263C6 ====

[CUETools log; Date: 20.11.2017 0:28:47; Version: 2.1.4]
[CTDB TOCID: p.kayjLuClUEmhdEiO3uR7liP3o-] found.
Track | CTDB Status
1 | (8/9) Accurately ripped
2 | (9/9) Accurately ripped
3 | (9/9) Accurately ripped
4 | (9/9) Accurately ripped
5 | (9/9) Accurately ripped
6 | (9/9) Accurately ripped
7 | (9/9) Accurately ripped
8 | (9/9) Accurately ripped
9 | (8/9) Accurately ripped
10 | (9/9) Accurately ripped
11 | (9/9) Accurately ripped
12 | (9/9) Accurately ripped
13 | (9/9) Accurately ripped
[AccurateRip ID: 001e05f0-0134e571-bf11650d] found.
Track [ CRC | V2 ] Status
01 [6c359adf|ee9e695b] (09+13/22) Accurately ripped
02 [ccab05ac|bfd7387f] (09+13/22) Accurately ripped
03 [1ab13a05|82712712] (09+13/22) Accurately ripped
04 [6b056b9c|770ff4ff] (09+13/22) Accurately ripped
05 [f38b43bf|56413191] (09+13/22) Accurately ripped
06 [d79b77aa|ffa0912c] (09+13/22) Accurately ripped
07 [fef0cf19|302348df] (09+13/22) Accurately ripped
08 [89912717|eb5c238a] (09+14/23) Accurately ripped
09 [432056ea|9960b092] (09+13/22) Accurately ripped
10 [be08c6ee|a7e43f37] (09+13/22) Accurately ripped
11 [54d10bd3|0a26200d] (09+13/22) Accurately ripped
12 [6f962a3c|9cd07243] (08+13/21) Accurately ripped
13 [59bb2259|08a063d7] (08+13/21) Accurately ripped

Track Peak [ CRC32 ] [W/O NULL] [ LOG ]
– 98,8 [DA42BE57] [3D3DD713] CRC32
01 98,8 [71E7CC86] [18001EA9]
02 98,8 [4B5E35FB] [A4958911]
03 98,8 [4AB9838E] [519DA07C]
04 98,8 [4D983473] [DA79DE69]
05 98,8 [EF1117E4] [BC5A24C7]
06 98,8 [94E7EAE0] [B8310367]
07 98,8 [D0D9DD7F] [6F0C0968]
08 98,8 [4B946F38] [C5ADDBDF]
09 98,8 [EA14E9D6] [C25BDC5B]
10 98,8 [24FEA965] [6578F0E0]
11 97,1 [F4950A20] [9823EFF5]
12 98,8 [818915B4] [A642CF7A]
13 98,8 [D4BAE49D] [CD9C7204]

foobar2000 1.2 / Dynamic Range Meter 1.1.1
log date: 2017-11-20 00:15:36

––––––––––––––––––––––––––––––––––––––––
Analyzed: Caravan / The World Is Yours - An Anthology 1968-1976 - Disc 1
––––––––––––––––––––––––––––––––––––––––

DR Peak RMS Duration Track
––––––––––––––––––––––––––––––––––––––––
DR9 -0.10 dB -12.00 dB 4:03 01-Place Of My Own
DR10 -0.10 dB -12.34 dB 4:02 02-Magic Man
DR9 -0.10 dB -12.18 dB 4:11 03-Love Song With Flute
DR10 -0.10 dB -11.90 dB 3:25 04-Grandma's Lawn
DR11 -0.10 dB -13.40 dB 4:08 05-Cecil Rons
DR11 -0.10 dB -14.47 dB 9:02 06-Where But For Caravan Would I?
DR11 -0.10 dB -14.34 dB 5:07 07-A Day In The Life Of Maurice Haylett
DR10 -0.10 dB -11.51 dB 3:07 08-If I Could Do It All Over Again, I'd Do It All Over You
DR13 -0.10 dB -16.91 dB 3:12 09-Clipping The Eighth (Hello Hello Demo)
DR10 -0.10 dB -13.16 dB 8:18 10-And I Wish I Were Stoned / Don't Worry
DR10 -0.25 dB -16.18 dB 1:21 11-Asforteri
DR10 -0.10 dB -12.58 dB 14:22 12-Can't Be Long Now - Francoise - For Richard - Warlock
DR11 -0.10 dB -15.92 dB 9:54 13-With An Ear To The Ground You Can Make It
––––––––––––––––––––––––––––––––––––––––

Number of tracks: 13
Official DR value: DR10

Samplerate: 44100 Hz
Channels: 2
Bits per sample: 16
Bitrate: 802 kbps
Codec: FLAC
================================================================================




Caravan - The World Is Yours: The Anthology 1968-1976 (2010) 4 CD Box Set [Re-Up]


CD2: (1:17:35)

01. Golf Girl (5:03)
02. In The Land Of Grey And Pink (5:02)
03. Nine Feet Underground (22:44)
04. Winter Wine (7:38)
05. I Don't Know Its Name (6:10)
06. Love To Love You (3:13)
07. Feelin', Reelin', Squealin' (9:31)
08. The Love In Your Eye (11:29)
09. The World Is Yours (3:41)
10. Aristocracy (3:03)


Exact Audio Copy V1.0 beta 1 from 15. November 2010

EAC extraction logfile from 6. September 2012, 18:28

Caravan / The World Is Yours - An Anthology 1968-1976 - Disc 2

Used drive : Optiarc DVD RW AD-7263S Adapter: 3 ID: 0

Read mode : Secure
Utilize accurate stream : Yes
Defeat audio cache : Yes
Make use of C2 pointers : No

Read offset correction : 48
Overread into Lead-In and Lead-Out : No
Fill up missing offset samples with silence : Yes
Delete leading and trailing silent blocks : No
Null samples used in CRC calculations : Yes
Used interface : Native Win32 interface for Win NT & 2000

Used output format : User Defined Encoder
Selected bitrate : 32 kBit/s
Quality : High
Add ID3 tag : No
Command line compressor : C:\Program Files\Exact Audio Copy\Flac\flac.exe
Additional command line options : -T "DATE=%y" -T "GENRE=%m" -8 -V %s


TOC of the extracted CD

Track | Start | Length | Start sector | End sector
––––––––––––––––––––––––––––-
1 | 0:00.00 | 5:03.10 | 0 | 22734
2 | 5:03.10 | 5:02.17 | 22735 | 45401
3 | 10:05.27 | 22:44.26 | 45402 | 147727
4 | 32:49.53 | 7:37.63 | 147728 | 182065
5 | 40:27.41 | 6:10.12 | 182066 | 209827
6 | 46:37.53 | 3:12.74 | 209828 | 224301
7 | 49:50.52 | 9:31.10 | 224302 | 267136
8 | 59:21.62 | 11:29.01 | 267137 | 318812
9 | 70:50.63 | 3:41.21 | 318813 | 335408
10 | 74:32.09 | 3:02.70 | 335409 | 349128


Range status and errors

Selected range

Filename C:\Documents and Settings\maxim\Мои документы\Мои рисунки\Caravan - The World Is Yours - An Anthology 1968-1976 - Disc 2.wav

Peak level 98.8 %
Extraction speed 0.1 X
Range quality 100.0 %
Test CRC 32DE1FE3
Copy CRC 32DE1FE3
Copy OK

No errors occurred


AccurateRip summary

Track 1 accurately ripped (confidence 3) [F61722E9]
Track 2 accurately ripped (confidence 3) [1A24DC13]
Track 3 cannot be verified as accurate (confidence 8) [98C7EB5D], AccurateRip returned [34220B30]
Track 4 accurately ripped (confidence 3) [2B33F949]
Track 5 accurately ripped (confidence 3) [4473C144]
Track 6 accurately ripped (confidence 3) [C4252F8A]
Track 7 accurately ripped (confidence 3) [608AC8F9]
Track 8 accurately ripped (confidence 3) [7C62B3D2]
Track 9 accurately ripped (confidence 3) [F262D397]
Track 10 accurately ripped (confidence 3) [F08A350D]

9 track(s) accurately ripped
1 track(s) could not be verified as accurate

Some tracks could not be verified as accurate

End of status report

==== Log checksum 63CA32DA95A4212AC775531E03F226BE5B6A0FF332883B01DDF5284FA9F6E464 ====

[CUETools log; Date: 20.11.2017 0:29:11; Version: 2.1.4]
[CTDB TOCID: vS6sjt1lmto8W5IcUuQrQjMqdeQ-] found.
Track | CTDB Status
1 | (10/10) Accurately ripped
2 | (10/10) Accurately ripped
3 | ( 8/10) Differs in 180 samples @03:23:71
4 | ( 9/10) Accurately ripped
5 | (10/10) Accurately ripped
6 | (10/10) Accurately ripped
7 | (10/10) Accurately ripped
8 | ( 9/10) Accurately ripped
9 | (10/10) Accurately ripped
10 | (10/10) Accurately ripped
[AccurateRip ID: 00201515-00ff04db-9c122f0a] found.
Track [ CRC | V2 ] Status
01 [f61722e9|7527f806] (09+13/22) Accurately ripped
02 [1a24dc13|81c26f57] (09+13/22) Accurately ripped
03 [98c7eb5d|033148a7] (00+00/22) No match
04 [2b33f949|6179953d] (09+13/22) Accurately ripped
05 [4473c144|e6c6042d] (08+13/21) Accurately ripped
06 [c4252f8a|b27ad938] (08+13/21) Accurately ripped
07 [608ac8f9|0148db7b] (08+12/20) Accurately ripped
08 [7c62b3d2|6638e435] (08+13/21) Accurately ripped
09 [f262d397|71d96325] (08+13/21) Accurately ripped
10 [f08a350d|4fd239f8] (06+13/21) Accurately ripped

Track Peak [ CRC32 ] [W/O NULL] [ LOG ]
– 98,8 [32DE1FE3] [27D0070E] CRC32
01 98,8 [12262EDA] [CC6444AD]
02 98,8 [DA2EEDA2] [EFC2D91B]
03 98,8 [83BD2ECD] [4A271E1F]
04 98,8 [DF214ACA] [63E49E69]
05 98,8 [ACAE0691] [9BD33703]
06 94,4 [5AC74762] [FF182282]
07 98,8 [8C478FBF] [6348933B]
08 98,8 [7A31A618] [F98E464C]
09 98,8 [E760E2B7] [8E18BBFB]
10 98,8 [0CDBD49C] [AF651071]

foobar2000 1.2 / Dynamic Range Meter 1.1.1
log date: 2017-11-20 00:16:10

––––––––––––––––––––––––––––––––––––––––
Analyzed: Caravan / The World Is Yours - An Anthology 1968-1976 - Disc 2
––––––––––––––––––––––––––––––––––––––––

DR Peak RMS Duration Track
––––––––––––––––––––––––––––––––––––––––
DR10 -0.10 dB -12.82 dB 5:03 01-Golf Girl
DR12 -0.10 dB -13.93 dB 5:02 02-In The Land Of Grey And Pink
DR11 -0.10 dB -13.50 dB 22:44 03-Nine Feet Underground
DR11 -0.10 dB -13.84 dB 7:38 04-Winter Wine
DR12 -0.10 dB -14.00 dB 6:10 05-I Don't Know Its Name
DR8 -0.49 dB -9.43 dB 3:13 06-Love To Love You
DR8 -0.10 dB -10.73 dB 9:31 07-Feelin', Reelin', Squealin'
DR13 -0.10 dB -15.20 dB 11:29 08-The Love In Your Eye
DR12 -0.10 dB -16.12 dB 3:41 09-The World Is Yours
DR12 -0.10 dB -13.27 dB 3:03 10-Aristocracy
––––––––––––––––––––––––––––––––––––––––

Number of tracks: 10
Official DR value: DR11

Samplerate: 44100 Hz
Channels: 2
Bits per sample: 16
Bitrate: 832 kbps
Codec: FLAC
================================================================================




Caravan - The World Is Yours: The Anthology 1968-1976 (2010) 4 CD Box Set [Re-Up]


CD3: (1:13:43)

01. Waterloo Lily (6:49)
02. Any Advance On Carpet? (9:09)
03. C'thlu Thulu (6:13)
04. Memory Lain Hugh - Headloss (9:16)
05. The Dog, The Dog, He's At It Again (5:58)
06. L'auberge Du Sanglier - A Hunting We Shall Go (10:04)
07. A Mirror For The Day (4:31)
08. For Richard (14:53)
09. Virgin On The Ridiculous (6:51)


Exact Audio Copy V1.0 beta 1 from 15. November 2010

EAC extraction logfile from 6. September 2012, 20:36

Caravan / The World Is Yours - An Anthology 1968-1976 - Disc 3

Used drive : Optiarc DVD RW AD-7263S Adapter: 3 ID: 0

Read mode : Secure
Utilize accurate stream : Yes
Defeat audio cache : Yes
Make use of C2 pointers : No

Read offset correction : 48
Overread into Lead-In and Lead-Out : No
Fill up missing offset samples with silence : Yes
Delete leading and trailing silent blocks : No
Null samples used in CRC calculations : Yes
Used interface : Native Win32 interface for Win NT & 2000

Used output format : User Defined Encoder
Selected bitrate : 32 kBit/s
Quality : High
Add ID3 tag : No
Command line compressor : C:\Program Files\Exact Audio Copy\Flac\flac.exe
Additional command line options : -T "DATE=%y" -T "GENRE=%m" -8 -V %s


TOC of the extracted CD

Track | Start | Length | Start sector | End sector
––––––––––––––––––––––––––––-
1 | 0:00.00 | 6:49.00 | 0 | 30674
2 | 6:49.00 | 9:09.23 | 30675 | 71872
3 | 15:58.23 | 6:12.70 | 71873 | 99842
4 | 22:11.18 | 9:15.53 | 99843 | 141520
5 | 31:26.71 | 5:57.46 | 141521 | 168341
6 | 37:24.42 | 10:03.60 | 168342 | 213626
7 | 47:28.27 | 4:30.65 | 213627 | 233941
8 | 51:59.17 | 14:53.18 | 233942 | 300934
9 | 66:52.35 | 6:50.51 | 300935 | 331735


Range status and errors

Selected range

Filename C:\Documents and Settings\maxim\Мои документы\Мои рисунки\Caravan - The World Is Yours - An Anthology 1968-1976 - Disc 3.wav

Peak level 98.8 %
Extraction speed 0.4 X
Range quality 100.0 %
Test CRC 6BE90999
Copy CRC 6BE90999
Copy OK

No errors occurred


AccurateRip summary

Track 1 accurately ripped (confidence 2) [AC5357B3]
Track 2 accurately ripped (confidence 2) [71485622]
Track 3 accurately ripped (confidence 2) [A70B06BB]
Track 4 accurately ripped (confidence 2) [7154C733]
Track 5 accurately ripped (confidence 2) [B0F44D72]
Track 6 accurately ripped (confidence 2) [D0701648]
Track 7 accurately ripped (confidence 2) [18E255B8]
Track 8 accurately ripped (confidence 2) [2A2CCE16]
Track 9 accurately ripped (confidence 2) [E5B1A9D3]

All tracks accurately ripped

End of status report

==== Log checksum D5DD223375C459767A49602E7F009CE5540CF308242F2074E47FE47F9E862EA4 ====

[CUETools log; Date: 20.11.2017 0:29:31; Version: 2.1.4]
[CTDB TOCID: psn30CAk5ZDNH.q0lCCtsKIW8to-] found.
Track | CTDB Status
1 | (10/10) Accurately ripped
2 | (10/10) Accurately ripped
3 | (10/10) Accurately ripped
4 | (10/10) Accurately ripped
5 | (10/10) Accurately ripped
6 | (10/10) Accurately ripped
7 | (10/10) Accurately ripped
8 | (10/10) Accurately ripped
9 | (10/10) Accurately ripped
[AccurateRip ID: 00184cae-00b3d9cb-67114709] found.
Track [ CRC | V2 ] Status
01 [ac5357b3|bf4164e3] (09+13/22) Accurately ripped
02 [71485622|a89dcd64] (09+13/22) Accurately ripped
03 [a70b06bb|b8a447c9] (09+12/21) Accurately ripped
04 [7154c733|9a0d4733] (09+12/21) Accurately ripped
05 [b0f44d72|c80a6e0a] (09+12/21) Accurately ripped
06 [d0701648|99b4b47b] (09+12/21) Accurately ripped
07 [18e255b8|388c9364] (09+13/22) Accurately ripped
08 [2a2cce16|c59c9dec] (07+13/20) Accurately ripped
09 [e5b1a9d3|4f9d136f] (08+12/20) Accurately ripped

Track Peak [ CRC32 ] [W/O NULL] [ LOG ]
– 98,8 [6BE90999] [F2C1598B] CRC32
01 98,8 [B6D519A4] [A02E021E]
02 98,8 [83B6CAC2] [6540D590]
03 98,8 [081174ED] [392D8718]
04 98,8 [BEB3CA2C] [D4951C82]
05 98,8 [2B31A903] [264D85DD]
06 98,8 [57E4D5FE] [78B0F181]
07 98,8 [AC3D5588] [0CC4C90D]
08 98,8 [196D6685] [DD56B284]
09 98,8 [6C1A4270] [9CE472FF]

foobar2000 1.2 / Dynamic Range Meter 1.1.1
log date: 2017-11-20 00:16:47

––––––––––––––––––––––––––––––––––––––––
Analyzed: Caravan / The World Is Yours - An Anthology 1968-1976 - Disc 3
––––––––––––––––––––––––––––––––––––––––

DR Peak RMS Duration Track
––––––––––––––––––––––––––––––––––––––––
DR10 -0.10 dB -12.20 dB 6:49 01-Waterloo Lily
DR15 -0.10 dB -17.28 dB 9:09 02-Any Advance On Carpet?
DR11 -0.10 dB -13.09 dB 6:13 03-C'thlu Thulu
DR11 -0.10 dB -12.24 dB 9:16 04-Memory Lain Hugh - Headloss
DR12 -0.10 dB -14.28 dB 5:58 05-The Dog, The Dog, He's At It Again
DR11 -0.10 dB -14.08 dB 10:04 06-L'auberge Du Sanglier - A Hunting We Shall Go
DR11 -0.10 dB -15.13 dB 4:31 07-A Mirror For The Day
DR11 -0.10 dB -14.40 dB 14:53 08-For Richard
DR11 -0.10 dB -13.53 dB 6:51 09-Virgin On The Ridiculous
––––––––––––––––––––––––––––––––––––––––

Number of tracks: 9
Official DR value: DR11

Samplerate: 44100 Hz
Channels: 2
Bits per sample: 16
Bitrate: 803 kbps
Codec: FLAC
================================================================================




Caravan - The World Is Yours: The Anthology 1968-1976 (2010) 4 CD Box Set [Re-Up]


CD4: (1:17:49)

01. Be Alright - Chance Of A Lifetime (7:07)
02. The Show Of Our Lives (5:46)
03. Keeping Back My Love (5:15)
04. No Backstage Pass (4:32)
05. Stuck In A Hole (3:10)
06. The Love In Your Eye (15:43)
07. The Dabsong Conshirtoe (15:13)
08. Here I Am (6:18)
09. A Very Smelly, Grubby Oik - Bobbing Wide (5:48)
10. All The Way (8:57)


Exact Audio Copy V1.0 beta 1 from 15. November 2010

EAC extraction logfile from 6. September 2012, 21:57

Caravan / The World Is Yours - An Anthology 1968-1976 - Disc 4

Used drive : Optiarc DVD RW AD-7263S Adapter: 3 ID: 0

Read mode : Secure
Utilize accurate stream : Yes
Defeat audio cache : Yes
Make use of C2 pointers : No

Read offset correction : 48
Overread into Lead-In and Lead-Out : No
Fill up missing offset samples with silence : Yes
Delete leading and trailing silent blocks : No
Null samples used in CRC calculations : Yes
Used interface : Native Win32 interface for Win NT & 2000

Used output format : User Defined Encoder
Selected bitrate : 32 kBit/s
Quality : High
Add ID3 tag : No
Command line compressor : C:\Program Files\Exact Audio Copy\Flac\flac.exe
Additional command line options : -T "DATE=%y" -T "GENRE=%m" -8 -V %s


TOC of the extracted CD

Track | Start | Length | Start sector | End sector
––––––––––––––––––––––––––––-
1 | 0:00.00 | 7:07.30 | 0 | 32054
2 | 7:07.30 | 5:46.18 | 32055 | 58022
3 | 12:53.48 | 5:14.43 | 58023 | 81615
4 | 18:08.16 | 4:32.05 | 81616 | 102020
5 | 22:40.21 | 3:09.41 | 102021 | 116236
6 | 25:49.62 | 15:43.27 | 116237 | 186988
7 | 41:33.14 | 15:12.71 | 186989 | 255459
8 | 56:46.10 | 6:18.22 | 255460 | 283831
9 | 63:04.32 | 5:47.60 | 283832 | 309916
10 | 68:52.17 | 8:57.10 | 309917 | 350201


Range status and errors

Selected range

Filename C:\Documents and Settings\maxim\Мои документы\Мои рисунки\Caravan - The World Is Yours - An Anthology 1968-1976 - Disc 4.wav

Peak level 98.8 %
Extraction speed 0.5 X
Range quality 100.0 %
Test CRC B2BFAB74
Copy CRC B2BFAB74
Copy OK

No errors occurred


AccurateRip summary

Track 1 accurately ripped (confidence 2) [F8C702C6]
Track 2 accurately ripped (confidence 2) [02ED707B]
Track 3 accurately ripped (confidence 2) [2A787E84]
Track 4 accurately ripped (confidence 2) [7E7BF529]
Track 5 accurately ripped (confidence 2) [B3E99957]
Track 6 accurately ripped (confidence 2) [EF49F630]
Track 7 accurately ripped (confidence 2) [D52065B8]
Track 8 accurately ripped (confidence 2) [083C2551]
Track 9 accurately ripped (confidence 2) [1EB1BDAB]
Track 10 accurately ripped (confidence 7) [DCB3EBE1]

All tracks accurately ripped

End of status report

==== Log checksum 39BE08F2BF6D41D4BF3984D892F839B9852E20396A41C1BCAF73CF8F52EC0AC2 ====

[CUETools log; Date: 20.11.2017 0:29:51; Version: 2.1.4]
[CTDB TOCID: AKki2Aye5fm2cM7e8D6MI0A2i6M-] found.
Track | CTDB Status
1 | (10/10) Accurately ripped
2 | (10/10) Accurately ripped
3 | (10/10) Accurately ripped
4 | (10/10) Accurately ripped
5 | (10/10) Accurately ripped
6 | (10/10) Accurately ripped
7 | (10/10) Accurately ripped
8 | (10/10) Accurately ripped
9 | (10/10) Accurately ripped
10 | ( 9/10) Accurately ripped
[AccurateRip ID: 001b1ae0-00df3efe-8d123d0a] found.
Track [ CRC | V2 ] Status
01 [f8c702c6|735b0309] (09+12/21) Accurately ripped
02 [02ed707b|5fe03362] (09+13/22) Accurately ripped
03 [2a787e84|c30bcd5d] (09+13/22) Accurately ripped
04 [7e7bf529|653d786c] (09+13/22) Accurately ripped
05 [b3e99957|d182027c] (09+13/22) Accurately ripped
06 [ef49f630|6634be7c] (09+13/22) Accurately ripped
07 [d52065b8|3b473fa2] (07+13/20) Accurately ripped
08 [083c2551|21003d89] (07+13/20) Accurately ripped
09 [1eb1bdab|4c444f68] (07+13/20) Accurately ripped
10 [dcb3ebe1|cf64bc82] (07+12/19) Accurately ripped

Track Peak [ CRC32 ] [W/O NULL] [ LOG ]
– 98,8 [B2BFAB74] [4E1C4B12] CRC32
01 98,8 [91E6D4ED] [25A64246]
02 98,8 [10625404] [D9237F6C]
03 98,8 [BCF6697D] [725A9EC6]
04 97,1 [CFDE3698] [21DF9941]
05 97,1 [DBFA33D3] [7CCA1B73]
06 98,8 [4D88253B] [9F23CB25]
07 98,8 [F8507DBE] [4FB07E89]
08 98,8 [002BC445] [52E45583]
09 98,8 [22A59B7E] [49C60A68]
10 98,8 [3E5CF5F6] [C30A4FC5]

foobar2000 1.2 / Dynamic Range Meter 1.1.1
log date: 2017-11-20 00:17:52

––––––––––––––––––––––––––––––––––––––––
Analyzed: Caravan / The World Is Yours - An Anthology 1968-1976 - Disc 4
––––––––––––––––––––––––––––––––––––––––

DR Peak RMS Duration Track
––––––––––––––––––––––––––––––––––––––––
DR12 -0.10 dB -15.20 dB 7:07 01-Be Alright - Chance Of A Lifetime
DR10 -0.10 dB -12.42 dB 5:46 02-The Show Of Our Lives
DR11 -0.10 dB -11.84 dB 5:15 03-Keeping Back My Love
DR11 -0.25 dB -15.04 dB 4:32 04-No Backstage Pass
DR11 -0.25 dB -12.25 dB 3:10 05-Stuck In A Hole
DR12 -0.10 dB -14.86 dB 15:43 06-The Love In Your Eye
DR10 -0.10 dB -12.95 dB 15:13 07-The Dabsong Conshirtoe
DR10 -0.10 dB -12.21 dB 6:18 08-Here I Am
DR10 -0.10 dB -12.78 dB 5:48 09-A Very Smelly, Grubby Oik - Bobbing Wide
DR10 -0.10 dB -14.06 dB 8:57 10-All The Way
––––––––––––––––––––––––––––––––––––––––

Number of tracks: 10
Official DR value: DR11

Samplerate: 44100 Hz
Channels: 2
Bits per sample: 16
Bitrate: 846 kbps
Codec: FLAC
================================================================================




All thanks to original releaser - sergey57s

More interesting music in My Blog