Subcategories

Caravan - Back On The Tracks: Live on the Continent (1998)

Posted By: uff
Caravan - Back On The Tracks: Live on the Continent (1998)

Caravan - Back On The Tracks: Live on the Continent (1998)
Rock | 2cd | XLD Rip | Flac + Cue + Log | covers
Continental Caravan Campaign, CoCaComp Act001, limited edition | rec: 1997 | 690Mb

Caravan are an English band from the Canterbury area, founded by former Wilde Flowers members David Sinclair, Richard Sinclair, Pye Hastings and Richard Coughlan in 1968. The band have not achieved much commercial success, but are considered a key part of the Canterbury scene, blending psychedelic rock, jazz and classical influences to create a distinctive sound.
Album information: Recorded at Tivoli, Utrecht, The Netherlands on 27 September 1997.

Track listing
cd1:
01. Memory Lain, Hugh (5:59)
02. Headloss (5:25)
03. It's A Sad, Sad Affair (3:12)
04. The Dog, The Dog, He's At It Again (6:30)
05. Cold As Ice (6:14)
06. Somewhere In Your Heart (6:17)
07. Traveling Ways (4:09)
08. I Know Why You're Laughing (5:40)
09. Liar (6:45)
~ (50:12)

cd2:
01. Nine Feet Underground (18:03)
02. Behind You (6:21)
03. It's Not Real (6:18)
04. For Richard (11:33)
05. Golf Girl (5:46)
06. If I Could Do It All Over Again, I'd Do It All Over You (3:40)
~ (51:42)

Personnel
- Pye Hastings / guitar, vocals
- Richard Coughlan / drums
- Dave Sinclair / keyboards
- Geoffrey Richardson / viola, flute
- Jim Leverton / bass, vocals
- Doug Boyle / lead guitar
- Simon Bentall / percussion


X Lossless Decoder version 20100218 (116.4)

XLD extraction logfile from 2010-02-18 19:41:48 +0100

Caravan / Back On The Tracks, Disk #1

Used drive : TSSTcorp CDDVDW SE-S224Q (revision TS00)

Use cdparanoia mode : YES (CDParanoia III 10.2 engine)
Disable audio cache : OK for the drive with cache less than 2750KB
Make use of C2 pointers : NO
Read offset correction : 6
Max retry count : 100

TOC of the extracted CD
Track | Start | Length | Start sector | End sector
––––––––––––––––––––––––––––-
1 | 00:00:00 | 05:59:26 | 0 | 26950
2 | 05:59:26 | 05:24:41 | 26951 | 51291
3 | 11:23:67 | 03:12:22 | 51292 | 65713
4 | 14:36:14 | 06:29:70 | 65714 | 94958
5 | 21:06:09 | 06:14:34 | 94959 | 123042
6 | 27:20:43 | 06:17:07 | 123043 | 151324
7 | 33:37:50 | 04:08:66 | 151325 | 169990
8 | 37:46:41 | 05:39:51 | 169991 | 195466
9 | 43:26:17 | 06:45:30 | 195467 | 225871

All Tracks
Filename : /• Marcel/Geconverteerd/Caravan - Back On The Tracks, Disk #1 [FLAC].flac
Album gain : -2.68 dB
Peak : 0.994232
CRC32 hash (test run) : 66041354
CRC32 hash : 66041354
CRC32 hash (skip zero) : E2D56B8B
Statistics
Read error : 0
Skipped (treated as error) : 0
Edge jitter error (maybe fixed) : 0
Atom jitter error (maybe fixed) : 0
Drift error (maybe fixed) : 0
Dropped bytes error (maybe fixed) : 0
Duplicated bytes error (maybe fixed) : 0
Inconsistency in error sectors : 0

Track 01

Pre-gap length : 00:02:00

Track gain : -1.47 dB
Peak : 0.853394
CRC32 hash (test run) : 436AAFFF
CRC32 hash : 436AAFFF
CRC32 hash (skip zero) : 43A42885
AccurateRip signature : 624F7F6B
->Track not present in AccurateRip database.
Statistics
Read error : 0
Skipped (treated as error) : 0
Edge jitter error (maybe fixed) : 0
Atom jitter error (maybe fixed) : 0
Drift error (maybe fixed) : 0
Dropped bytes error (maybe fixed) : 0
Duplicated bytes error (maybe fixed) : 0
Inconsistency in error sectors : 0

Track 02

Track gain : -2.09 dB
Peak : 0.846802
CRC32 hash (test run) : D63C9719
CRC32 hash : D63C9719
CRC32 hash (skip zero) : 80469FA1
AccurateRip signature : 2E8817D9
->Track not present in AccurateRip database.
Statistics
Read error : 0
Skipped (treated as error) : 0
Edge jitter error (maybe fixed) : 0
Atom jitter error (maybe fixed) : 0
Drift error (maybe fixed) : 0
Dropped bytes error (maybe fixed) : 0
Duplicated bytes error (maybe fixed) : 0
Inconsistency in error sectors : 0

Track 03

Pre-gap length : 00:22:60

Track gain : -2.21 dB
Peak : 0.933350
CRC32 hash (test run) : 086807E3
CRC32 hash : 086807E3
CRC32 hash (skip zero) : 457DA234
AccurateRip signature : D60385A9
->Track not present in AccurateRip database.
Statistics
Read error : 0
Skipped (treated as error) : 0
Edge jitter error (maybe fixed) : 0
Atom jitter error (maybe fixed) : 0
Drift error (maybe fixed) : 0
Dropped bytes error (maybe fixed) : 0
Duplicated bytes error (maybe fixed) : 0
Inconsistency in error sectors : 0

Track 04

Pre-gap length : 00:01:49

Track gain : -3.48 dB
Peak : 0.932404
CRC32 hash (test run) : 20AF26BC
CRC32 hash : 20AF26BC
CRC32 hash (skip zero) : 3CEF6A9E
AccurateRip signature : 21645E31
->Track not present in AccurateRip database.
Statistics
Read error : 0
Skipped (treated as error) : 0
Edge jitter error (maybe fixed) : 0
Atom jitter error (maybe fixed) : 0
Drift error (maybe fixed) : 0
Dropped bytes error (maybe fixed) : 0
Duplicated bytes error (maybe fixed) : 0
Inconsistency in error sectors : 0

Track 05

Track gain : -1.69 dB
Peak : 0.958038
CRC32 hash (test run) : 0CE5F17A
CRC32 hash : 0CE5F17A
CRC32 hash (skip zero) : 1A4FB414
AccurateRip signature : C7E218DA
->Track not present in AccurateRip database.
Statistics
Read error : 0
Skipped (treated as error) : 0
Edge jitter error (maybe fixed) : 0
Atom jitter error (maybe fixed) : 0
Drift error (maybe fixed) : 0
Dropped bytes error (maybe fixed) : 0
Duplicated bytes error (maybe fixed) : 0
Inconsistency in error sectors : 0

Track 06

Pre-gap length : 00:08:43

Track gain : 0.71 dB
Peak : 0.880554
CRC32 hash (test run) : CC20EFFF
CRC32 hash : CC20EFFF
CRC32 hash (skip zero) : E3485B04
AccurateRip signature : 89A1BB38
->Track not present in AccurateRip database.
Statistics
Read error : 0
Skipped (treated as error) : 0
Edge jitter error (maybe fixed) : 0
Atom jitter error (maybe fixed) : 0
Drift error (maybe fixed) : 0
Dropped bytes error (maybe fixed) : 0
Duplicated bytes error (maybe fixed) : 0
Inconsistency in error sectors : 0

Track 07

Pre-gap length : 00:13:23

Track gain : 0.41 dB
Peak : 0.912720
CRC32 hash (test run) : E8779197
CRC32 hash : E8779197
CRC32 hash (skip zero) : FE1E14F2
AccurateRip signature : FC141B3E
->Track not present in AccurateRip database.
Statistics
Read error : 0
Skipped (treated as error) : 0
Edge jitter error (maybe fixed) : 0
Atom jitter error (maybe fixed) : 0
Drift error (maybe fixed) : 0
Dropped bytes error (maybe fixed) : 0
Duplicated bytes error (maybe fixed) : 0
Inconsistency in error sectors : 0

Track 08

Pre-gap length : 00:07:29

Track gain : -3.58 dB
Peak : 0.961395
CRC32 hash (test run) : C0B4FBF5
CRC32 hash : C0B4FBF5
CRC32 hash (skip zero) : E68B04C5
AccurateRip signature : 77416BA3
->Track not present in AccurateRip database.
Statistics
Read error : 0
Skipped (treated as error) : 0
Edge jitter error (maybe fixed) : 0
Atom jitter error (maybe fixed) : 0
Drift error (maybe fixed) : 0
Dropped bytes error (maybe fixed) : 0
Duplicated bytes error (maybe fixed) : 0
Inconsistency in error sectors : 0

Track 09

Pre-gap length : 00:08:13

Track gain : -3.81 dB
Peak : 0.994232
CRC32 hash (test run) : D5A9656E
CRC32 hash : D5A9656E
CRC32 hash (skip zero) : C0283126
AccurateRip signature : 5A1C8DE1
->Track not present in AccurateRip database.
Statistics
Read error : 0
Skipped (treated as error) : 0
Edge jitter error (maybe fixed) : 0
Atom jitter error (maybe fixed) : 0
Drift error (maybe fixed) : 0
Dropped bytes error (maybe fixed) : 0
Duplicated bytes error (maybe fixed) : 0
Inconsistency in error sectors : 0

No errors occurred

End of status report
–––––
X Lossless Decoder version 20100218 (116.4)

XLD extraction logfile from 2010-02-18 21:09:00 +0100

Caravan / Back On The Tracks (disc 2)

Used drive : TSSTcorp CDDVDW SE-S224Q (revision TS00)

Use cdparanoia mode : YES (CDParanoia III 10.2 engine)
Disable audio cache : OK for the drive with cache less than 2750KB
Make use of C2 pointers : NO
Read offset correction : 6
Max retry count : 100

TOC of the extracted CD
Track | Start | Length | Start sector | End sector
––––––––––––––––––––––––––––-
1 | 00:00:00 | 18:03:30 | 0 | 81254
2 | 18:03:30 | 06:21:15 | 81255 | 109844
3 | 24:24:45 | 06:17:65 | 109845 | 138184
4 | 30:42:35 | 11:33:21 | 138185 | 190180
5 | 42:15:56 | 05:46:30 | 190181 | 216160
6 | 48:02:11 | 03:39:46 | 216161 | 232631

All Tracks
Filename : /• Marcel/Geconverteerd/Caravan - Back On The Tracks (disc 2) [FLAC].flac
Album gain : -2.23 dB
Peak : 0.956299
CRC32 hash (test run) : C3BEB089
CRC32 hash : C3BEB089
CRC32 hash (skip zero) : 12F13EF5
Statistics
Read error : 0
Skipped (treated as error) : 0
Edge jitter error (maybe fixed) : 0
Atom jitter error (maybe fixed) : 0
Drift error (maybe fixed) : 0
Dropped bytes error (maybe fixed) : 0
Duplicated bytes error (maybe fixed) : 0
Inconsistency in error sectors : 0

Track 01

Pre-gap length : 00:02:00

Track gain : -2.31 dB
Peak : 0.913635
CRC32 hash (test run) : EC0E253C
CRC32 hash : EC0E253C
CRC32 hash (skip zero) : 9A3915D0
AccurateRip signature : 5BA153A0
->Track not present in AccurateRip database.
Statistics
Read error : 0
Skipped (treated as error) : 0
Edge jitter error (maybe fixed) : 0
Atom jitter error (maybe fixed) : 0
Drift error (maybe fixed) : 0
Dropped bytes error (maybe fixed) : 0
Duplicated bytes error (maybe fixed) : 0
Inconsistency in error sectors : 0

Track 02

Pre-gap length : 00:20:24

Track gain : -1.69 dB
Peak : 0.956299
CRC32 hash (test run) : 080F0248
CRC32 hash : 080F0248
CRC32 hash (skip zero) : C8FEA1D5
AccurateRip signature : CB5E2DC6
->Track not present in AccurateRip database.
Statistics
Read error : 0
Skipped (treated as error) : 0
Edge jitter error (maybe fixed) : 0
Atom jitter error (maybe fixed) : 0
Drift error (maybe fixed) : 0
Dropped bytes error (maybe fixed) : 0
Duplicated bytes error (maybe fixed) : 0
Inconsistency in error sectors : 0

Track 03

Pre-gap length : 00:08:33

Track gain : -1.92 dB
Peak : 0.945892
CRC32 hash (test run) : 80564242
CRC32 hash : 80564242
CRC32 hash (skip zero) : 3D08C849
AccurateRip signature : A783D643
->Track not present in AccurateRip database.
Statistics
Read error : 0
Skipped (treated as error) : 0
Edge jitter error (maybe fixed) : 0
Atom jitter error (maybe fixed) : 0
Drift error (maybe fixed) : 0
Dropped bytes error (maybe fixed) : 0
Duplicated bytes error (maybe fixed) : 0
Inconsistency in error sectors : 0

Track 04

Pre-gap length : 00:54:57

Track gain : -2.93 dB
Peak : 0.935364
CRC32 hash (test run) : ADD09019
CRC32 hash : ADD09019
CRC32 hash (skip zero) : 06DEC814
AccurateRip signature : 857848A6
->Track not present in AccurateRip database.
Statistics
Read error : 0
Skipped (treated as error) : 0
Edge jitter error (maybe fixed) : 0
Atom jitter error (maybe fixed) : 0
Drift error (maybe fixed) : 0
Dropped bytes error (maybe fixed) : 0
Duplicated bytes error (maybe fixed) : 0
Inconsistency in error sectors : 0

Track 05

Pre-gap length : 00:08:22

Track gain : 0.37 dB
Peak : 0.890625
CRC32 hash (test run) : 48C7580C
CRC32 hash : 48C7580C
CRC32 hash (skip zero) : FA813A3B
AccurateRip signature : 860A0C8B
->Track not present in AccurateRip database.
Statistics
Read error : 0
Skipped (treated as error) : 0
Edge jitter error (maybe fixed) : 0
Atom jitter error (maybe fixed) : 0
Drift error (maybe fixed) : 0
Dropped bytes error (maybe fixed) : 0
Duplicated bytes error (maybe fixed) : 0
Inconsistency in error sectors : 0

Track 06

Pre-gap length : 00:03:52

Track gain : -1.72 dB
Peak : 0.938660
CRC32 hash (test run) : E19BFA39
CRC32 hash : E19BFA39
CRC32 hash (skip zero) : 21713E8C
AccurateRip signature : DD8A2D91
->Track not present in AccurateRip database.
Statistics
Read error : 0
Skipped (treated as error) : 0
Edge jitter error (maybe fixed) : 0
Atom jitter error (maybe fixed) : 0
Drift error (maybe fixed) : 0
Dropped bytes error (maybe fixed) : 0
Duplicated bytes error (maybe fixed) : 0
Inconsistency in error sectors : 0

No errors occurred

End of status report




[CUETools log; Date: 2015.03.04. 10:07:43; Version: 2.1.4]
[CTDB TOCID: MpeuSCGbFCR7xcZ16VLv_uLnExk-] found.
Track | CTDB Status
1 | (1/1) Accurately ripped
2 | (1/1) Accurately ripped
3 | (1/1) Accurately ripped
4 | (1/1) Accurately ripped
5 | (1/1) Accurately ripped
6 | (1/1) Accurately ripped
7 | (1/1) Accurately ripped
8 | (1/1) Accurately ripped
9 | (1/1) Accurately ripped
[AccurateRip ID: 0010dae6-007be9ee-820bc309] found.
Track [ CRC | V2 ] Status
01 [624f7f6b|24986aaa] (5+0/5) Accurately ripped
02 [2e8817d9|1c50946f] (5+0/5) Accurately ripped
03 [d60385a9|4512abd1] (5+0/5) Accurately ripped
04 [21645e31|e1115350] (5+0/5) Accurately ripped
05 [c7e218da|31a6a46b] (5+0/5) Accurately ripped
06 [89a1bb38|5eaa24af] (5+0/5) Accurately ripped
07 [fc141b3e|bc723c23] (5+0/5) Accurately ripped
08 [77416ba3|659e5583] (5+0/5) Accurately ripped
09 [5a1c8de1|57e809e2] (5+0/5) Accurately ripped

Track Peak [ CRC32 ] [W/O NULL]
– 99,4 [66041354] [E2D56B8B]
01 85,3 [436AAFFF] [43A42885]
02 84,6 [D63C9719] [80469FA1]
03 93,3 [086807E3] [457DA234]
04 93,2 [20AF26BC] [3CEF6A9E]
05 95,8 [0CE5F17A] [1A4FB414]
06 88,0 [CC20EFFF] [E3485B04]
07 91,2 [E8779197] [FE1E14F2]
08 96,1 [C0B4FBF5] [E68B04C5]
09 99,4 [D5A9656E] [C0283126]

–––––––-
[CUETools log; Date: 2015.03.04. 10:19:04; Version: 2.1.4]
[CTDB TOCID: Ht6h6SkNx6zQqDSUd2t34j4V9ak-] found.
Track | CTDB Status
1 | (1/1) Accurately ripped
2 | (1/1) Accurately ripped
3 | (1/1) Accurately ripped
4 | (1/1) Accurately ripped
5 | (1/1) Accurately ripped
6 | (1/1) Accurately ripped
[AccurateRip ID: 000ec643-004b16f9-590c1d06] found.
Track [ CRC | V2 ] Status
01 [5ba153a0|a7031a77] (5+0/5) Accurately ripped
02 [cb5e2dc6|b924e373] (5+0/5) Accurately ripped
03 [a783d643|9fab8fc8] (5+0/5) Accurately ripped
04 [857848a6|27036b31] (5+0/5) Accurately ripped
05 [860a0c8b|71f87abb] (5+0/5) Accurately ripped
06 [dd8a2d91|bbc30f30] (5+0/5) Accurately ripped

Track Peak [ CRC32 ] [W/O NULL]
– 95,6 [C3BEB089] [12F13EF5]
01 91,3 [EC0E253C] [9A3915D0]
02 95,6 [080F0248] [C8FEA1D5]
03 94,5 [80564242] [3D08C849]
04 93,5 [ADD09019] [06DEC814]
05 89,0 [48C7580C] [FA813A3B]
06 93,8 [E19BFA39] [21713E8C]


Thx to bond1961