Subcategories

Caravan - Grey Pink & Gold (2004)

Posted By: uff
Caravan - Grey Pink & Gold (2004)

Caravan - Grey Pink & Gold (2004)
Rock | 2cd | EAC Rip | Flac + Cue + Log | covers
Dejavu Retro R2CD 42-73 | rec: 1991, 2002 | 830Mb

This is an excellent 2 disc collection of 2 live performances, one in '91 and the other in '02. both recordings and performances are excellent! The '91 show focuses on their first three releases while the '02 show has the Blind Dogs line up. The discs comes with a booklet. not much info in it but lots of pictures from the band. I love caravan's music. Richard Sinclair's vocals are so smooth and beautiful. I don't think he could sing a bad song ever. I enjoy the band's playing and violin work. This release is a pleasant surprise as i was thinking it would be bootleg quality, but it isn't. Highly recommended for all you caravan fans and fans of the canterbury music scene. ~Amazon

Track listing
cd1:
01. Headloss (4:36)
02. In the Land of Grey and Pink (4:38)
03. Videos of Hollywood (6:38)
04. Nine Feet Underground (19:00)
05. Winter Wine (7:48)
06. If I could do it all over again (3:18)
07. For Richard (13:16)
~ (59:14)

cd2:
01. All the way / A very smelly grubby little oik (10:38)
02. MEDLEY (15:24)
03. Nightmare (9:45)
04. I know why your laughing (5:34)
05. Liar (7:07)
06. The dog, the dog, he's at it again (6:28)
07. Nowhere to hide (8:40)
08. Memory lain Hugh / Headloss (9:13)
09. If I could do it all over again I'd do it all over you (3:49)
~ (76:37)


Exact Audio Copy V0.99 prebeta 4 from 23. January 2008

EAC extraction logfile from 23. July 2009, 22:05

Caravan / Grey Pink & Gold - CD 1

Used drive : ASUS DRW-2014S1 Adapter: 1 ID: 0

Read mode : Secure
Utilize accurate stream : Yes
Defeat audio cache : Yes
Make use of C2 pointers : No

Read offset correction : 6
Overread into Lead-In and Lead-Out : No
Fill up missing offset samples with silence : Yes
Delete leading and trailing silent blocks : No
Null samples used in CRC calculations : Yes
Used interface : Installed external ASPI interface
Gap handling : Appended to previous track

Used output format : User Defined Encoder
Selected bitrate : 768 kBit/s
Quality : High
Add ID3 tag : No
Command line compressor : C:\Program Files\Exact Audio Copy\FLAC\FLAC.EXE
Additional command line options : -6 -V -T "ARTIST=%a" -T "TITLE=%t" -T "ALBUM=%g" -T "DATE=%y" -T "TRACKNUMBER=%n" -T "GENRE=%m" -T "COMMENT=%e" %s -o %d


TOC of the extracted CD

Track | Start | Length | Start sector | End sector
––––––––––––––––––––––––––––-
1 | 0:00.00 | 4:36.33 | 0 | 20732
2 | 4:36.33 | 4:38.06 | 20733 | 41588
3 | 9:14.39 | 6:38.21 | 41589 | 71459
4 | 15:52.60 | 18:59.66 | 71460 | 156950
5 | 34:52.51 | 7:47.62 | 156951 | 192037
6 | 42:40.38 | 3:17.67 | 192038 | 206879
7 | 45:58.30 | 13:15.63 | 206880 | 266567


Track 1

Filename C:\byPr0gger\Caravan - Grey, Pink & Gold (1991, 2002 - 2004, Dejavu Retro) 2CD[FLAC]\disc 1\01. Headloss.wav

Pre-gap length 0:00:02.00

Peak level 96.7 %
Track quality 100.0 %
Test CRC 30ED4412
Copy CRC 30ED4412
Accurately ripped (confidence 1) [780CB17A]
Copy OK

Track 2

Filename C:\byPr0gger\Caravan - Grey, Pink & Gold (1991, 2002 - 2004, Dejavu Retro) 2CD[FLAC]\disc 1\02. In the Land of Grey and Pink.wav

Peak level 98.8 %
Track quality 100.0 %
Test CRC E5FD4B81
Copy CRC E5FD4B81
Accurately ripped (confidence 1) [5985F102]
Copy OK

Track 3

Filename C:\byPr0gger\Caravan - Grey, Pink & Gold (1991, 2002 - 2004, Dejavu Retro) 2CD[FLAC]\disc 1\03. Videos of Hollywood.wav

Peak level 91.2 %
Track quality 100.0 %
Test CRC B8FCAEC1
Copy CRC B8FCAEC1
Accurately ripped (confidence 1) [DB1C97E1]
Copy OK

Track 4

Filename C:\byPr0gger\Caravan - Grey, Pink & Gold (1991, 2002 - 2004, Dejavu Retro) 2CD[FLAC]\disc 1\04. Nine Feet Underground.wav

Peak level 98.8 %
Track quality 100.0 %
Test CRC DE59D98F
Copy CRC DE59D98F
Accurately ripped (confidence 1) [EC55DA91]
Copy OK

Track 5

Filename C:\byPr0gger\Caravan - Grey, Pink & Gold (1991, 2002 - 2004, Dejavu Retro) 2CD[FLAC]\disc 1\05. Winter Wine.wav

Peak level 98.8 %
Track quality 100.0 %
Test CRC 5383581E
Copy CRC 5383581E
Accurately ripped (confidence 1) [9C96F527]
Copy OK

Track 6

Filename C:\byPr0gger\Caravan - Grey, Pink & Gold (1991, 2002 - 2004, Dejavu Retro) 2CD[FLAC]\disc 1\06. If I could do it all over again.wav

Peak level 98.8 %
Track quality 99.9 %
Test CRC DB102B15
Copy CRC DB102B15
Accurately ripped (confidence 1) [A45072C7]
Copy OK

Track 7

Filename C:\byPr0gger\Caravan - Grey, Pink & Gold (1991, 2002 - 2004, Dejavu Retro) 2CD[FLAC]\disc 1\07. For Richard.wav

Peak level 98.8 %
Track quality 100.0 %
Test CRC 0AAEFD4F
Copy CRC 0AAEFD4F
Accurately ripped (confidence 1) [8760C10C]
Copy OK


All tracks accurately ripped

No errors occurred

End of status report
–––––––

Exact Audio Copy V0.99 prebeta 4 from 23. January 2008

EAC extraction logfile from 23. July 2009, 22:25

Caravan / Grey Pink & Gold - Live 2002

Used drive : ASUS DRW-2014S1 Adapter: 1 ID: 0

Read mode : Secure
Utilize accurate stream : Yes
Defeat audio cache : Yes
Make use of C2 pointers : No

Read offset correction : 6
Overread into Lead-In and Lead-Out : No
Fill up missing offset samples with silence : Yes
Delete leading and trailing silent blocks : No
Null samples used in CRC calculations : Yes
Used interface : Installed external ASPI interface
Gap handling : Appended to previous track

Used output format : User Defined Encoder
Selected bitrate : 768 kBit/s
Quality : High
Add ID3 tag : No
Command line compressor : C:\Program Files\Exact Audio Copy\FLAC\FLAC.EXE
Additional command line options : -6 -V -T "ARTIST=%a" -T "TITLE=%t" -T "ALBUM=%g" -T "DATE=%y" -T "TRACKNUMBER=%n" -T "GENRE=%m" -T "COMMENT=%e" %s -o %d


TOC of the extracted CD

Track | Start | Length | Start sector | End sector
––––––––––––––––––––––––––––-
1 | 0:00.00 | 10:37.57 | 0 | 47831
2 | 10:37.57 | 15:24.27 | 47832 | 117158
3 | 26:02.09 | 9:44.42 | 117159 | 161000
4 | 35:46.51 | 5:33.42 | 161001 | 186017
5 | 41:20.18 | 7:07.24 | 186018 | 218066
6 | 48:27.42 | 6:27.72 | 218067 | 247163
7 | 54:55.39 | 8:40.12 | 247164 | 286175
8 | 63:35.51 | 9:13.12 | 286176 | 327662
9 | 72:48.63 | 3:48.49 | 327663 | 344811


Track 1

Filename C:\byPr0gger\Caravan - Grey, Pink & Gold (1991, 2002 - 2004, Dejavu Retro) 2CD[FLAC]\disc 2\01. All the way , A very smelly grubby little oik.wav

Pre-gap length 0:00:02.00

Peak level 52.4 %
Track quality 100.0 %
Test CRC 2EEA6B38
Copy CRC 2EEA6B38
Accurately ripped (confidence 1) [61F0E107]
Copy OK

Track 2

Filename C:\byPr0gger\Caravan - Grey, Pink & Gold (1991, 2002 - 2004, Dejavu Retro) 2CD[FLAC]\disc 2\02. MEDLEY.wav

Peak level 52.4 %
Track quality 100.0 %
Test CRC 3FD90FAD
Copy CRC 3FD90FAD
Accurately ripped (confidence 1) [3E92EE4C]
Copy OK

Track 3

Filename C:\byPr0gger\Caravan - Grey, Pink & Gold (1991, 2002 - 2004, Dejavu Retro) 2CD[FLAC]\disc 2\03. Nightmare.wav

Peak level 52.4 %
Track quality 100.0 %
Test CRC 2A19E2E5
Copy CRC 2A19E2E5
Accurately ripped (confidence 1) [ECC94723]
Copy OK

Track 4

Filename C:\byPr0gger\Caravan - Grey, Pink & Gold (1991, 2002 - 2004, Dejavu Retro) 2CD[FLAC]\disc 2\04. I know why your laughing.wav

Peak level 52.4 %
Track quality 100.0 %
Test CRC F65D75D4
Copy CRC F65D75D4
Accurately ripped (confidence 1) [D1DE0A94]
Copy OK

Track 5

Filename C:\byPr0gger\Caravan - Grey, Pink & Gold (1991, 2002 - 2004, Dejavu Retro) 2CD[FLAC]\disc 2\05. Liar.wav

Peak level 52.4 %
Track quality 100.0 %
Test CRC 1D1326EC
Copy CRC 1D1326EC
Accurately ripped (confidence 1) [C998CD03]
Copy OK

Track 6

Filename C:\byPr0gger\Caravan - Grey, Pink & Gold (1991, 2002 - 2004, Dejavu Retro) 2CD[FLAC]\disc 2\06. The dog, the dog, he's at it again.wav

Peak level 52.4 %
Track quality 100.0 %
Test CRC E4773296
Copy CRC E4773296
Accurately ripped (confidence 1) [0713B56C]
Copy OK

Track 7

Filename C:\byPr0gger\Caravan - Grey, Pink & Gold (1991, 2002 - 2004, Dejavu Retro) 2CD[FLAC]\disc 2\07. Nowhere to hide.wav

Peak level 52.4 %
Track quality 100.0 %
Test CRC B39AF3F6
Copy CRC B39AF3F6
Accurately ripped (confidence 1) [322192D4]
Copy OK

Track 8

Filename C:\byPr0gger\Caravan - Grey, Pink & Gold (1991, 2002 - 2004, Dejavu Retro) 2CD[FLAC]\disc 2\08. Memory lain Hugh , Headloss.wav

Peak level 52.4 %
Track quality 100.0 %
Test CRC 9D628911
Copy CRC 9D628911
Accurately ripped (confidence 1) [CA48B69C]
Copy OK

Track 9

Filename C:\byPr0gger\Caravan - Grey, Pink & Gold (1991, 2002 - 2004, Dejavu Retro) 2CD[FLAC]\disc 2\09. If I could do it all over again I'd do it all over you.wav

Peak level 52.4 %
Track quality 100.0 %
Test CRC 5C2AAF3D
Copy CRC 5C2AAF3D
Accurately ripped (confidence 1) [6541D45D]
Copy OK


All tracks accurately ripped

No errors occurred

End of status report




[CUETools log; Date: 2015.03.10. 19:36:44; Version: 2.1.4]
[CTDB TOCID: dxxM5nndxLbmtFSjkZbgBV_dJ4U-] found.
Track | CTDB Status
1 | (4/4) Accurately ripped
2 | (4/4) Accurately ripped
3 | (4/4) Accurately ripped
4 | (4/4) Accurately ripped
5 | (4/4) Accurately ripped
6 | (4/4) Accurately ripped
7 | (4/4) Accurately ripped
[AccurateRip ID: 000e973b-005b1761-620de207] found.
Track [ CRC | V2 ] Status
01 [780cb17a|3cf70730] (06+05/11) Accurately ripped
02 [5985f102|cb824898] (05+04/09) Accurately ripped
03 [db1c97e1|a061069b] (05+04/09) Accurately ripped
04 [ec55da91|00743212] (05+04/09) Accurately ripped
05 [9c96f527|ccd27c0b] (05+04/09) Accurately ripped
06 [a45072c7|41be9895] (05+04/09) Accurately ripped
07 [8760c10c|23421850] (05+04/09) Accurately ripped

Track Peak [ CRC32 ] [W/O NULL] [ LOG ]
– 98,8 [C1F0ED41] [44F29D41]
01 96,7 [30ED4412] [4F2A6F88] CRC32
02 98,8 [E5FD4B81] [A6E22A22] CRC32
03 91,2 [B8FCAEC1] [BBB33EDA] CRC32
04 98,8 [DE59D98F] [0076ADFA] CRC32
05 98,8 [5383581E] [D9B3C74F] CRC32
06 98,8 [DB102B15] [D5F73AE7] CRC32
07 98,8 [0AAEFD4F] [09701ACB] CRC32

––––
[CUETools log; Date: 2015.03.10. 19:55:59; Version: 2.1.4]
[CTDB TOCID: 32HO.olyxh42Kdemnv22BEzviVA-] found.
Track | CTDB Status
1 | (4/4) Accurately ripped
2 | (4/4) Accurately ripped
3 | (4/4) Accurately ripped
4 | (4/4) Accurately ripped
5 | (4/4) Accurately ripped
6 | (4/4) Accurately ripped
7 | (4/4) Accurately ripped
8 | (4/4) Accurately ripped
9 | (4/4) Accurately ripped
[AccurateRip ID: 001d8a14-00d1c069-8d11f509] found.
Track [ CRC | V2 ] Status
01 [61f0e107|12489811] (5+4/9) Accurately ripped
02 [3e92ee4c|e7b85ca1] (5+4/9) Accurately ripped
03 [ecc94723|1725b122] (5+4/9) Accurately ripped
04 [d1de0a94|a66b6690] (5+4/9) Accurately ripped
05 [c998cd03|24b689ac] (5+4/9) Accurately ripped
06 [0713b56c|7440482f] (5+4/9) Accurately ripped
07 [322192d4|9ee8b415] (5+4/9) Accurately ripped
08 [ca48b69c|4e4dcead] (5+4/9) Accurately ripped
09 [6541d45d|e5817a68] (5+4/9) Accurately ripped

Track Peak [ CRC32 ] [W/O NULL] [ LOG ]
– 52,4 [4ECAC653] [30070700]
01 52,4 [2EEA6B38] [1A4C76A5] CRC32
02 52,4 [3FD90FAD] [D4FA8BEB] CRC32
03 52,4 [2A19E2E5] [21BC5BA3] CRC32
04 52,4 [F65D75D4] [BF7A0EFF] CRC32
05 52,4 [1D1326EC] [8368BB14] CRC32
06 52,4 [E4773296] [ECB9FB0F] CRC32
07 52,4 [B39AF3F6] [514F6B60] CRC32
08 52,4 [9D628911] [6B1EA97D] CRC32
09 52,4 [5C2AAF3D] [6C7250A8] CRC32


Thx to Pr0gger