Carbon Based Lifeforms - Derelicts (2017)

Posted By: SERTiL
Carbon Based Lifeforms - Derelicts (2017)

Carbon Based Lifeforms - Derelicts
XLD Rip | FLAC (tracks)+cue, log, front cover | 78:30 min | 403 MB
Label: Blood Music – BLOOD 184 | Tracks: 12 | Rls.date: 2017
Ambient, Psy-Chill, Downtempo

Sweden is not too often cited alongside the best of the downtempo scene, but it just makes so much sense for the country's sleek looks and cool approach to be associated to slow-burning bursts of outsider electronica. As such, Goteborg's Carbon Based Lifeforms have been among the few Swedes to wave the flag for the genre, and this new album - Derelicts - for Blood Music feels like another masterful stroke of genius from the duo. We've always been big fans of the label, so this LP comes as both a pleasure and a surprise in the fact that we weren't necessarily expecting them to appear on its wondrous catalogue. However, it's clear from the start that this is a fitting relationship; Derelict follows like a strange and compelling story, taking us into a world of distant chants and slow beats which form a distinctive narrative across its 12 tracks, and it comes highly recommended for anyone wishing to go on a little journey. Blissful, indeed.

TRACKLIST
01. Accede (05:44)
02. Derelicts (06:12)
03. Clouds (04:31)
04. Nattväsen (05:38)
05. Equilibrium (08:57)
06. Path of Least Resistance (06:40)
07. 780 days (06:16)
08. ~42° (04:55)
09. Rayleigh Scatterers (05:12)
10. Dodecahedron (08:43)
11. Loss Aversion (05:12)
12. Everwave (14:22)

X Lossless Decoder version 20170710 (150.2)

XLD extraction logfile from 2017-10-07 03:39:55 +0300

Carbon Based Lifeforms / Derelicts

Used drive : TSSTcorp CDDVDW SH-S222A (revision SB02)
Media type : Pressed CD

Ripper mode : XLD Secure Ripper
Disable audio cache : OK for the drive with a cache less than 1375KiB
Make use of C2 pointers : NO
Read offset correction : 6
Max retry count : 99999
Gap status : Analyzed, Appended

TOC of the extracted CD
Track | Start | Length | Start sector | End sector
––––––––––––––––––––––––––––-
1 | 00:00:00 | 05:17:40 | 0 | 23814
2 | 05:17:40 | 06:03:39 | 23815 | 51078
3 | 11:21:04 | 04:18:27 | 51079 | 70455
4 | 15:39:31 | 05:19:48 | 70456 | 94428
5 | 20:59:04 | 08:09:32 | 94429 | 131135
6 | 29:08:36 | 06:05:67 | 131136 | 158577
7 | 35:14:28 | 06:11:51 | 158578 | 186453
8 | 41:26:04 | 04:42:00 | 186454 | 207603
9 | 46:08:04 | 04:41:10 | 207604 | 228688
10 | 50:49:14 | 08:23:04 | 228689 | 266417
11 | 59:12:18 | 05:01:17 | 266418 | 289009
12 | 64:13:35 | 14:21:67 | 289010 | 353651

AccurateRip Summary
Disc not found in AccurateRip DB.

All Tracks
Album gain : -6.26 dB
Peak : 0.986938
Statistics
Read error : 0
Jitter error (maybe fixed) : 0
Retry sector count : 0
Damaged sector count : 0

Track 01
Filename : /XLD/Carbon Based Lifeforms - Derelicts (FLAC)/01 Accede.flac
Pre-gap length : 00:02:00

Track gain : -4.41 dB
Peak : 0.960358
CRC32 hash (test run) : D94C139B
CRC32 hash : D94C139B
CRC32 hash (skip zero) : 5D0D3073
AccurateRip v1 signature : 835E59CB
AccurateRip v2 signature : AD08B179
->Track not present in AccurateRip database.
Statistics
Read error : 0
Jitter error (maybe fixed) : 0
Retry sector count : 0
Damaged sector count : 0

Track 02
Filename : /XLD/Carbon Based Lifeforms - Derelicts (FLAC)/02 Derelicts.flac

Track gain : -4.84 dB
Peak : 0.960358
CRC32 hash (test run) : B3F7A075
CRC32 hash : B3F7A075
CRC32 hash (skip zero) : 5DA3892C
AccurateRip v1 signature : A54223F8
AccurateRip v2 signature : ADFA008C
->Track not present in AccurateRip database.
Statistics
Read error : 0
Jitter error (maybe fixed) : 0
Retry sector count : 0
Damaged sector count : 0

Track 03
Filename : /XLD/Carbon Based Lifeforms - Derelicts (FLAC)/03 Clouds.flac

Track gain : -6.05 dB
Peak : 0.960114
CRC32 hash (test run) : 9D5AA306
CRC32 hash : 9D5AA306
CRC32 hash (skip zero) : 10255809
AccurateRip v1 signature : C4A4AC23
AccurateRip v2 signature : 9CF38186
->Track not present in AccurateRip database.
Statistics
Read error : 0
Jitter error (maybe fixed) : 0
Retry sector count : 0
Damaged sector count : 0

Track 04
Filename : /XLD/Carbon Based Lifeforms - Derelicts (FLAC)/04 Nattväsen.flac

Track gain : -5.74 dB
Peak : 0.960327
CRC32 hash (test run) : 21682A90
CRC32 hash : 21682A90
CRC32 hash (skip zero) : F3EC8885
AccurateRip v1 signature : 03EC4376
AccurateRip v2 signature : DD264572
->Track not present in AccurateRip database.
Statistics
Read error : 0
Jitter error (maybe fixed) : 0
Retry sector count : 0
Damaged sector count : 0

Track 05
Filename : /XLD/Carbon Based Lifeforms - Derelicts (FLAC)/05 Equilibrium.flac

Track gain : -5.92 dB
Peak : 0.960358
CRC32 hash (test run) : A981C2D4
CRC32 hash : A981C2D4
CRC32 hash (skip zero) : 0916495D
AccurateRip v1 signature : 47242E92
AccurateRip v2 signature : C58BA9AE
->Track not present in AccurateRip database.
Statistics
Read error : 0
Jitter error (maybe fixed) : 0
Retry sector count : 0
Damaged sector count : 0

Track 06
Filename : /XLD/Carbon Based Lifeforms - Derelicts (FLAC)/06 Path Of Least Resistance.flac

Track gain : -6.22 dB
Peak : 0.971680
CRC32 hash (test run) : 9F19BAB0
CRC32 hash : 9F19BAB0
CRC32 hash (skip zero) : BBA5A567
AccurateRip v1 signature : 756718FE
AccurateRip v2 signature : 3145868F
->Track not present in AccurateRip database.
Statistics
Read error : 0
Jitter error (maybe fixed) : 0
Retry sector count : 0
Damaged sector count : 0

Track 07
Filename : /XLD/Carbon Based Lifeforms - Derelicts (FLAC)/07 780 Days.flac

Track gain : -7.46 dB
Peak : 0.986938
CRC32 hash (test run) : 24EB179C
CRC32 hash : 24EB179C
CRC32 hash (skip zero) : C479568D
AccurateRip v1 signature : 42170899
AccurateRip v2 signature : 95FC8DEF
->Track not present in AccurateRip database.
Statistics
Read error : 0
Jitter error (maybe fixed) : 0
Retry sector count : 0
Damaged sector count : 0

Track 08
Filename : /XLD/Carbon Based Lifeforms - Derelicts (FLAC)/08 ~42°.flac

Track gain : -6.27 dB
Peak : 0.960358
CRC32 hash (test run) : 70C8123E
CRC32 hash : 70C8123E
CRC32 hash (skip zero) : 1A4D56F7
AccurateRip v1 signature : E0EC46F0
AccurateRip v2 signature : 227EDA5C
->Track not present in AccurateRip database.
Statistics
Read error : 0
Jitter error (maybe fixed) : 0
Retry sector count : 0
Damaged sector count : 0

Track 09
Filename : /XLD/Carbon Based Lifeforms - Derelicts (FLAC)/09 Rayleigh Scatterers.flac

Track gain : -6.82 dB
Peak : 0.960358
CRC32 hash (test run) : 543C18EC
CRC32 hash : 543C18EC
CRC32 hash (skip zero) : A919954B
AccurateRip v1 signature : D61EE328
AccurateRip v2 signature : 98CBC8E7
->Track not present in AccurateRip database.
Statistics
Read error : 0
Jitter error (maybe fixed) : 0
Retry sector count : 0
Damaged sector count : 0

Track 10
Filename : /XLD/Carbon Based Lifeforms - Derelicts (FLAC)/10 Dodecahedron.flac

Track gain : -6.47 dB
Peak : 0.960358
CRC32 hash (test run) : 340A031B
CRC32 hash : 340A031B
CRC32 hash (skip zero) : EE2A1BA7
AccurateRip v1 signature : 8722A54A
AccurateRip v2 signature : 9BDBC99B
->Track not present in AccurateRip database.
Statistics
Read error : 0
Jitter error (maybe fixed) : 0
Retry sector count : 0
Damaged sector count : 0

Track 11
Filename : /XLD/Carbon Based Lifeforms - Derelicts (FLAC)/11 Loss Aversion.flac

Track gain : -5.90 dB
Peak : 0.960358
CRC32 hash (test run) : 1D1EF7F0
CRC32 hash : 1D1EF7F0
CRC32 hash (skip zero) : 073C2E51
AccurateRip v1 signature : 6BE6E907
AccurateRip v2 signature : 8A554CBA
->Track not present in AccurateRip database.
Statistics
Read error : 0
Jitter error (maybe fixed) : 0
Retry sector count : 0
Damaged sector count : 0

Track 12
Filename : /XLD/Carbon Based Lifeforms - Derelicts (FLAC)/12 Everwave.flac

Track gain : -6.05 dB
Peak : 0.959625
CRC32 hash (test run) : 03104AAC
CRC32 hash : 03104AAC
CRC32 hash (skip zero) : BDB87209
AccurateRip v1 signature : B91C157E
AccurateRip v2 signature : 0BEC732D
->Track not present in AccurateRip database.
Statistics
Read error : 0
Jitter error (maybe fixed) : 0
Retry sector count : 0
Damaged sector count : 0

No errors occurred

End of status report

––-BEGIN XLD SIGNATURE––-
zp8YeKe_Q4I_2o_i8tW6T8bPlP1QGKrCPiLTkuyzhiI0ev2vju8RE0kWX.dO3_teVm_EoqoEI9.QUo5WRKQrE4DXFYghMYE4uSjFc2y
––-END XLD SIGNATURE––-


Thanks to the Original customer.