Subcategories

Caro Emerald - Deleted Scenes From The Cutting Room Floor [HitFM Edition] (2010) {2012, Remastered}

Posted By: popsakov
Caro Emerald - Deleted Scenes From The Cutting Room Floor [HitFM Edition] (2010) {2012, Remastered}

Caro Emerald - Deleted Scenes From The Cutting Room Floor [HitFM Edition] (2010) {2012, Remastered}
EAC Rip | FLAC (Img) + Cue + Log ~ 366 Mb | MP3 CBR320 ~ 153 Mb
Covers Included (PNG, 300 dpi) | RAR 5% Recovery
Vocal Jazz, Electro Swing, Pop | Chinese Dragon Music #ESCE-012-02-2012

Caro Emerald came out of nowhere in 2009 with the summertime hit "Back It Up," a catchy jazz-pop song with a dance beat. The follow-up single, "A Night Like This," was an even bigger hit, topping the Dutch charts. By the time Deleted Scenes from the Cutting Room Floor came around, Emerald was well established as one of the most exciting new artists to emerge from the Netherlands in some time, and her full-length album debut was eagerly awaited. It includes the smash hit singles "Back It Up" and "A Night Like This," both written by Vincent de Giorgio, David Schreurs, and Jan van Wieringen. The latter two Dutchmen are Emerald's producers. They released Deleted Scenes from the Cutting Room Floor on their Amsterdam label Grandmono Records. In addition to the pair of singles, the album includes ten new songs quite varied in style. "Just One Dance" is straight dance-pop with dashes of jazz, and "The Lipstick on His Collar" draws from both Amy Winehouse circa Back to Black (2006) and Portishead circa Dummy (1994). "The Other Woman" is another song that brings to mind Winehouse and Portishead. Other songs like "Dr. Wanna Do" go heavy on the jazz. Emerald is a talented singer and she sings in English well, but in the end, the varied jazz-pop productions and the slick dance beats are what set her apart from the crowd. Fans of the initial singles should find plenty else to enjoy on Deleted Scenes from the Cutting Room Floor, which finds Emerald trying out a number of different jazz-pop styles.
~ Jason Birchmeier, All Music

***************

Track List:

01. That Man (Radio Edit) [3:23]
02. Just One Dance [4:02]
03. Riviera Life [3:30]
04. Back It Up [3:54]
05. The Other Woman [5:36]
06. Absolutely Me [2:47]
07. You Dont Love Me [3:55]
08. Dr. Wanna Do [3:04]
09. Stuck [4:32]
10. I Know That He's Mine [4:19]
11. A Night Like This [3:49]
12. The Lipstick On His Collar [3:29]
13. That Man (Instrumental) [3:59]

Exact Audio Copy V0.99 prebeta 5 from 4. May 2009

EAC extraction logfile from 10. March 2012, 15:23

Caro Emerald / Deleted Scenes From The Cutting Room Floor [HitFM Edition]

Used drive : HL-DT-STDVDRAM GT10N Adapter: 1 ID: 0

Read mode : Secure
Utilize accurate stream : Yes
Defeat audio cache : Yes
Make use of C2 pointers : No

Read offset correction : 102
Overread into Lead-In and Lead-Out : No
Fill up missing offset samples with silence : Yes
Delete leading and trailing silent blocks : No
Null samples used in CRC calculations : Yes
Used interface : Native Win32 interface for Win NT & 2000

Used output format : Internal WAV Routines
Sample format : 44.100 Hz; 16 Bit; Stereo


TOC of the extracted CD

Track | Start | Length | Start sector | End sector
––––––––––––––––––––––––––––-
1 | 0:00.00 | 3:22.45 | 0 | 15194
2 | 3:22.45 | 4:02.27 | 15195 | 33371
3 | 7:24.72 | 3:30.28 | 33372 | 49149
4 | 10:55.25 | 3:54.23 | 49150 | 66722
5 | 14:49.48 | 5:35.55 | 66723 | 91902
6 | 20:25.28 | 2:46.43 | 91903 | 104395
7 | 23:11.71 | 3:55.33 | 104396 | 122053
8 | 27:07.29 | 3:04.10 | 122054 | 135863
9 | 30:11.39 | 4:32.24 | 135864 | 156287
10 | 34:43.63 | 4:18.45 | 156288 | 175682
11 | 39:02.33 | 3:48.42 | 175683 | 192824
12 | 42:51.00 | 3:28.58 | 192825 | 208482
13 | 46:19.58 | 3:59.09 | 208483 | 226416


Range status and errors

Selected range

Filename C:\HitFM\Caro Emerald - Deleted Scenes From The Cutting Room Floor [HitFM Edition].wav

Peak level 96.4 %
Range quality 100.0 %
Copy CRC 6F7F933F
Copy OK

No errors occurred

End of status report

foobar2000 1.3.16 / Dynamic Range Meter 1.1.1
log date: 2018-03-23 14:11:55

––––––––––––––––––––––––––––––––––––––––
Analyzed: Caro Emerald / Deleted Scenes From The Cutting Room Floor [HitFM Edition]
––––––––––––––––––––––––––––––––––––––––

DR Peak RMS Duration Track
––––––––––––––––––––––––––––––––––––––––
DR6 -0.32 dB -8.11 dB 3:23 01-That Man (Radio Edit)
DR6 -0.32 dB -9.03 dB 4:02 02-Just One Dance
DR6 -0.32 dB -8.19 dB 3:30 03-Riviera Life
DR7 -0.32 dB -8.36 dB 3:54 04-Back It Up
DR7 -0.32 dB -9.23 dB 5:36 05-The Other Woman
DR7 -0.32 dB -9.18 dB 2:47 06-Absolutely Me
DR6 -0.32 dB -8.58 dB 3:55 07-You Dont Love Me
DR6 -0.32 dB -8.17 dB 3:04 08-Dr. Wanna Do
DR7 -0.32 dB -9.99 dB 4:32 09-Stuck
DR8 -0.32 dB -9.67 dB 4:19 10-I Know That He's Mine
DR6 -0.32 dB -8.18 dB 3:49 11-A Night Like This
DR7 -0.32 dB -9.00 dB 3:29 12-The Lipstick On His Collar
DR7 -0.32 dB -9.52 dB 3:59 13-That Man (Instrumental)
––––––––––––––––––––––––––––––––––––––––

Number of tracks: 13
Official DR value: DR7

Samplerate: 44100 Hz
Channels: 2
Bits per sample: 16
Bitrate: 885 kbps
Codec: FLAC
================================================================================

[CUETools log; Date: 23.03.2018 14:12:02; Version: 2.1.6]
[CTDB TOCID: ryS37KXlpV_ZfTT9DHsxszn7yZU-] found.
Track | CTDB Status
1 | (0/1) No match
2 | (0/1) No match
3 | (0/1) No match
4 | (0/1) No match
5 | (0/1) No match
6 | (0/1) No match
7 | (0/1) No match
8 | (0/1) No match
9 | (0/1) No match
10 | (0/1) No match
11 | (0/1) No match
12 | (0/1) No match
13 | (0/1) No match
[AccurateRip ID: 00181571-00f191ea-b40bca0d] found.
Track [ CRC | V2 ] Status
01 [b10c55f9|24d6e715] (0+0/2) No match
02 [d00fbef2|9bd07b04] (0+0/2) No match
03 [b5a4c8d8|58bb2f89] (0+0/2) No match
04 [f43f58f7|64a97acc] (0+0/2) No match
05 [f191d38c|85834120] (0+0/2) No match
06 [9e852cca|3a06212e] (0+0/2) No match
07 [55b5a439|bed95af8] (0+0/2) No match
08 [78f56a07|ac561818] (0+0/2) No match
09 [4fba7d17|4326b1a5] (0+0/2) No match
10 [ddb0915a|e49d663b] (0+0/2) No match
11 [1afc7fa4|e5ee5971] (0+0/2) No match
12 [f8073185|75cdabac] (0+0/2) No match
13 [1e5acf98|42ad213f] (0+0/2) No match

Track Peak [ CRC32 ] [W/O NULL] [ LOG ]
– 96,4 [6F7F933F] [36BB7173] CRC32
01 96,4 [A004CF23] [A0F319EC]
02 96,4 [FC00036E] [83623C25]
03 96,4 [83D255DC] [DF043F1B]
04 96,4 [D36FB15B] [C8256A36]
05 96,4 [A1224046] [0023E224]
06 96,4 [C6E7E4D8] [254B7774]
07 96,4 [1E38BD38] [19BFA826]
08 96,4 [3587EF89] [97E95D38]
09 96,4 [B64D1DC9] [1DD28EDF]
10 96,4 [328752E1] [97C9C091]
11 96,4 [14B07A8C] [614A009E]
12 96,4 [8AE65C9F] [E3121FEC]
13 96,4 [EFEA319D] [C47B1DD0]

Caro Emerald - Deleted Scenes From The Cutting Room Floor [HitFM Edition] (2010) {2012, Remastered}

All thanks go to torvaaldsen

>>> Caro Emerald in my Blog <<<

Download from icerbox.com: