Carole King - Her Greatest Hits: Songs of Long Ago (1978) Reissue 1999 [Reuploaded]

Posted By: Designol
Carole King - Her Greatest Hits: Songs of Long Ago (1978) Reissue 1999 [Reuploaded]

Carole King - Her Greatest Hits: Songs of Long Ago (1978) Reissue 1999
EAC | FLAC | Image (Cue&Log) ~ 362 Mb (incl 5%) | Mp3 (CBR320/Stereo) ~ 172 Mb (incl 5%) | Scans included
Genre: Soft Rock, Folk Rock, Classic Rock, Singer-songwriter | Label: Ode, Legacy, Epic | # EK 65846 | Time: 00:51:20

This album was always sort of a joke among Carole King's serious fans, containing 12 songs drawn from six albums, and liner notes that fail even to acknowledge the existence of Writer, her one pre-Tapestry solo LP. A Natural Woman supplanted it later, and the addition of two live cuts, "Eventually" and "(You Make Me Feel Like) A Natural Woman" from the Carnegie Hall concert on the 1999 reissue (Ode/Epic/Legacy 65846), doesn't extended the range or depth of the selection sufficiently. On the other hand, the 1999 remastering does improve the listening pleasure inherent in what is here – the material off of Tapestry, Music, Rhymes & Reasons, and others is now very robust, with vivid instrumentation and a close, rich profile of King's voice. The selection of King's work is still only an inch deep, but it's a more rewarding inch.
Review by Bruce Eder, Allmusic.com
While the landmark Tapestry album earned her superstar status, singer/songwriter Carole King had already firmly established herself as one of pop music's most gifted and successful composers, with work recorded by everyone from the Beatles to Aretha Franklin. Born Carole Klein on February 9, 1942, in Brooklyn, NY, she began playing piano at the age of four, and formed her first band, the vocal quartet the Co-Sines, while in high school. A devotee of the composing team of Jerry Lieber and Mike Stoller (the duo behind numerous hits for Elvis Presley, the Coasters, and Ben E. King), she became a fixture at influential DJ Alan Freed's local rock & roll shows; while attending Queens College, she fell in with budding songwriters Paul Simon and Neil Sedaka as well as Gerry Goffin, with whom she forged a writing partnership.

In 1959, Sedaka scored a hit with "Oh! Carol," written in her honor; King cut an answer record, "Oh! Neil," but it stiffed. She and Goffin, who eventually married, began writing under publishers Don Kirshner and Al Nevins in the famed pop songwriting house the Brill Building, where they worked alongside the likes of Doc Pomus, Mort Shuman, Jeff Barry, Ellie Greenwich, and countless others. In 1961, Goffin and King scored their first hit with the Shirelles' chart-topping "Will You Love Me Tomorrow"; their next effort, Bobby Vee's "Take Good Care of My Baby," also hit number one, as did "The Locomotion," recorded by their babysitter, Little Eva. Together, the couple wrote over 100 chart hits in a vast range of styles, including the Chiffons' "One Fine Day," the Monkees' "Pleasant Valley Sunday," the Drifters' "Up on the Roof," the Cookies' "Chains" (later covered by the Beatles), Aretha Franklin's "(You Make Me Feel) Like a Natural Woman," and the Crystals' controversial "He Hit Me (And It Felt Like a Kiss)."

King also continued her attempts to mount a solo career, but scored only one hit, 1962's "It Might as Well Rain Until September." In the mid-'60s she, Goffin, and columnist Al Aronowitz founded their own short-lived label, Tomorrow Records; Charles Larkey, the bassist for the Tomorrow group the Myddle Class, eventually became King's second husband after her marriage to Goffin dissolved. She and Larkey later moved to the West Coast, where in 1968 they founded the City, a trio rounded out by New York musician Danny Kortchmar. The City recorded one LP, Now That Everything's Been Said, but did not tour due to King's stage fright; as a result, the album was a commercial failure, although it did feature songs later popularized by the Byrds ("Wasn't Born to Follow"), Blood, Sweat & Tears ("Hi-De-Ho"), and James Taylor ("You've Got a Friend").

Taylor and King ultimately became close friends, and he encouraged her to pursue a solo career. Released in 1970, Writer proved a false start, but in 1971 she released Tapestry, which stayed on the charts for over six years and was the best-selling album of the era. A quiet, reflective work that proved seminal in the development of the singer/songwriter genre, Tapestry also scored a pair of hit singles, "So Far Away" and the chart-topping "It's Too Late," whose flip side, "I Feel the Earth Move," garnered major airplay as well. Issued in 1971, Music also hit number one, and generated the hit "Sweet Seasons"; 1972's Rhymes & Reasons reached number two on the charts and 1974's Wrap Around Joy, which featured the hit "Jazzman," hit the number one spot.

In 1975, King and Goffin reunited to write Thoroughbred, which also featured contributions from James Taylor, David Crosby, and Graham Nash. After 1977's Simple Things, she mounted a tour with the backing group Navarro and married her frequent songwriting partner Rick Evers, who died a year later after a heroin overdose. Pearls, a collection of performances of songs written during her partnership with Goffin, was released in 1980 and was her last significant hit, and King soon moved to a tiny mountain village in Idaho, where she became active in the environmental movement. After 1983's Speeding Time, she took a six-year hiatus from recording before releasing City Streets, which featured guest Eric Clapton. In 2001, she returned with Love Makes the World, a self-released disc on her own Rockingale label. Four years passed before her next record, The Living Room Tour, a double-disc set documenting her intimate 2004-2005 tour that found her revisiting songs from throughout her career with only her piano and acoustic guitars as accompaniment. King joined longtime friend James Taylor for a co-starring show at L.A.’s famed Troubadour venue in 2007, and the pair followed it with several more shows, resulting in the Live at the Troubadour release in 2010.

Official Website
Wiki

Tracklist:


01. Jazzman (03:45)
02. So Far Away (03:55)
03. Sweet Seasons (03:14)
04. Brother, Brother (02:59)
05. Only Love Is Real (03:31)
06. I Feel The Earth Move (02:58)
07. It's Too Late (03:53)
08. Nightingale (03:37)
09. Been To Common (03:37)
10. Smackwater Jack (03:41)
11. Corazon (03:56)
12. Believe In Humanity (03:19)
13. Eventually (Live) (04:38)
14. (You Make Me Feel Like) A Natural Woman (Live) (03:56)


Exact Audio Copy V1.0 beta 1 from 15. November 2010

EAC extraction logfile from 13. April 2011, 18:59

Carole King / Her Greatest Hits (Song Of Long Ago)

Used drive : ASUS DRW-24B1ST Adapter: 0 ID: 0

Read mode : Secure
Utilize accurate stream : Yes
Defeat audio cache : Yes
Make use of C2 pointers : No

Read offset correction : 6
Overread into Lead-In and Lead-Out : No
Fill up missing offset samples with silence : Yes
Delete leading and trailing silent blocks : No
Null samples used in CRC calculations : Yes
Used interface : Native Win32 interface for Win NT & 2000

Used output format : User Defined Encoder
Selected bitrate : 768 kBit/s
Quality : High
Add ID3 tag : No
Command line compressor : C:\Program Files\Exact Audio Copy\FLAC\FLAC.EXE
Additional command line options : -8 -V -T "ARTIST=%a" -T "TITLE=%t" -T "ALBUM=%g" -T "DATE=%y" -T "TRACKNUMBER=%n" -T "GENRE=%m" -T "COMMENT=%e" %j–picture="%i"%j %s -o %d


TOC of the extracted CD

Track | Start | Length | Start sector | End sector
––––––––––––––––––––––––––––-
1 | 0:00.00 | 3:46.25 | 0 | 16974
2 | 3:46.25 | 3:56.55 | 16975 | 34729
3 | 7:43.05 | 3:15.63 | 34730 | 49417
4 | 10:58.68 | 3:00.65 | 49418 | 62982
5 | 13:59.58 | 3:33.00 | 62983 | 78957
6 | 17:32.58 | 2:58.70 | 78958 | 92377
7 | 20:31.53 | 3:54.35 | 92378 | 109962
8 | 24:26.13 | 3:38.30 | 109963 | 126342
9 | 28:04.43 | 3:39.17 | 126343 | 142784
10 | 31:43.60 | 3:42.28 | 142785 | 159462
11 | 35:26.13 | 3:58.37 | 159463 | 177349
12 | 39:24.50 | 3:20.63 | 177350 | 192412
13 | 42:45.38 | 4:38.55 | 192413 | 213317
14 | 47:24.18 | 3:56.40 | 213318 | 231057


Range status and errors

Selected range

Filename C:\_Audiorips\Carole King - Her Greatest Hits (Songs of Long Ago)\Carole King - Her Greatest Hits (Song Of Long Ago).wav

Peak level 100.0 %
Extraction speed 0.2 X
Range quality 100.0 %
Test CRC 12D874A4
Copy CRC 12D874A4
Copy OK

No errors occurred


AccurateRip summary

Track 1 accurately ripped (confidence 5) [0EEBA793]
Track 2 accurately ripped (confidence 5) [21F01293]
Track 3 accurately ripped (confidence 5) [D372213C]
Track 4 accurately ripped (confidence 5) [A14D1FB3]
Track 5 accurately ripped (confidence 5) [14DF9C17]
Track 6 accurately ripped (confidence 5) [6DDFBF36]
Track 7 accurately ripped (confidence 5) [29C5DDA4]
Track 8 accurately ripped (confidence 5) [C2239523]
Track 9 accurately ripped (confidence 5) [A13212F0]
Track 10 accurately ripped (confidence 5) [7EC83B9F]
Track 11 accurately ripped (confidence 5) [09E8DA8D]
Track 12 accurately ripped (confidence 5) [884B81F1]
Track 13 accurately ripped (confidence 5) [1F68A7F1]
Track 14 accurately ripped (confidence 5) [E9696851]

All tracks accurately ripped

End of status report

==== Log checksum 8960FF9F4B7D7D5C12FF8E8AA30CC5E55D48B76089D3477FABB6B96D983BFB44 ====

foobar2000 1.2 / Dynamic Range Meter 1.1.1
log date: 2014-06-11 16:04:22

––––––––––––––––––––––––––––––––––––––––
Analyzed: Carole King / Her Greatest Hits (Song Of Long Ago)
––––––––––––––––––––––––––––––––––––––––

DR Peak RMS Duration Track
––––––––––––––––––––––––––––––––––––––––
DR11 0.00 dB -12.69 dB 3:46 01-Jazzman
DR12 0.00 dB -13.89 dB 3:57 02-So Far Away
DR12 0.00 dB -13.71 dB 3:16 03-Sweet Seasons
DR11 0.00 dB -13.60 dB 3:01 04-Brother, Brother
DR10 0.00 dB -12.60 dB 3:33 05-Only Love Is Real
DR10 -1.00 dB -13.28 dB 2:59 06-I Feel The Earth Move
DR10 0.00 dB -12.51 dB 3:54 07-It's Too Late
DR11 0.00 dB -12.53 dB 3:38 08-Nightingale
DR11 0.00 dB -12.81 dB 3:39 09-Been To Common
DR11 0.00 dB -12.36 dB 3:42 10-Smackwater Jack
DR12 0.00 dB -14.34 dB 3:58 11-Corazon
DR11 0.00 dB -12.30 dB 3:21 12-Believe In Humanity
DR11 0.00 dB -14.88 dB 4:39 13-Eventually (Live)
DR10 0.00 dB -13.84 dB 3:57 14-(You Make Me Feel Like) A Natural Woman (Live)
––––––––––––––––––––––––––––––––––––––––

Number of tracks: 14
Official DR value: DR11

Samplerate: 44100 Hz
Channels: 2
Bits per sample: 16
Bitrate: 810 kbps
Codec: FLAC
================================================================================

Carole King - Her Greatest Hits: Songs of Long Ago (1978) Reissue 1999 [Reuploaded]

Carole King - Her Greatest Hits: Songs of Long Ago (1978) Reissue 1999 [Reuploaded]