Carole King - Music (1971) [2007, Japanese Paper Sleeve]

Posted By: BlondStyle
Carole King - Music (1971) [2007, Japanese Paper Sleeve]

Carole King - Music (1971) [2007, Japanese Paper Sleeve]
Pop/Rock, Singer/Songwriter | EAC Rip | FLAC, Tracks+CUE + LOG + Covers-600dpi (JPEG) | 43:03 Min | 269,63 Mb
Label: Epic (Japan) | Released: 2007, September, 26
Carole King - Music (1971) [2007, Japanese Paper Sleeve]

is the third album by American singer-songwriter . It is a continuation of the style laid down in . The album was released in December 1971 and quickly rose to the top of the charts. It features songs such as (US #12 by ), a #9 hit for , and . experienced immediate success and was certified Gold on December 9, 1971, days after release. It was certified Platinum on July 17, 1995. entered the top ten at #8, becoming the first of many weeks both and would occupy the top ten simultaneously. The album hit #1 on New Year's Day 1972 and stayed there for three consecutive weeks. plays the piano and celeste on many tracks. After years as one of the most prolific and successful songwriters in pop music, emerged in the '70s with , an album that catapulted her to the forefront of the singer/songwriter movement. While she had mined her back catalog for that album, she relied more heavily on songs written with new collaborator for . Coming out on the heels of the classic , it's hard not to feel like this album was a bit of a letdown. However, time has shown this album to be one of her finest. While these songs lyrically lack the simplistic beauty of -penned tunes, the melodies are very strong and adds some nice texture to her piano-based tunes with the tasteful percussion of . When goes for grand statements, however, it doesn't always work. Her call for peace and brotherhood works on songs like the opening track, but her voice is not strong enough and does not convey enough emotion to prevent uplifting tunes like from sounding a bit hollow and preachy. But her songwriting is still in peak form, and there are many highlights including (also made into a hit by ) and (with backing vocals by ).

Release of the album: 1971, December [LP Ode Records, Cat.# [url=http://www.discogs.com/Carole-King-Music/release/733564]SP-77013, USA]
Release of this CD: 2007, September, 26 [CD Epic (Japan), Cat.# [url=http://www.discogs.com/Carole-King-Music/release/6669538]EICP-843 / EAN: 4547366032475]
Manufactured By – Sony Music Japan International Inc.

Carole King - Music (1971) [2007, Japanese Paper Sleeve]


Acoustic Guitar – Danny Kootch, James Taylor (2) (tracks: 4, 8, 11)
Artwork By [Designer] – Chuck Beeson
Artwork By [Direction] – Roland Young
Backing Vocals – Abigale Haness (tracks: 4, 7, 9, 10)
Backing Vocals, Celesta [Electric], Piano, Electric Piano – Carole King
Bongos, Congas, Tambourine – Bobbye Porter Hall
Congas – Theresa Colderon
Double Bass [Acoustic], Bass [Electric] – Charles Larkey
Drums – Joel O'Brien
Engineer – Hank Cicalo
Engineer [Assistant] – Norm Kinney
Photography – Jim Mc Crary
Producer – Lou Adler
Saxophone [Tenor] – Curtis Amy (tracks: 1, 3, 7)


Carole King - Music (1971) [2007, Japanese Paper Sleeve]


Tracklist:

01. Brother, Brother (03:01)
(Carole King)
02. It's Going To Take Some Time (03:35)
(Carole King, Toni Stern)
03. Sweet Seasons (03:16)
(Carole King)
04. Some Kind Of Wonderful (03:08)
(Carole King, Gerry Goffin)
05. Surely (04:59)
(Carole King)
06. Carry Your Load (02:52)
(Carole King)
07. Music (03:50)
(Carole King)
08. Song Of Long Ago (02:45)
(Carole King)
09. Brighter (02:46)
(Carole King)
10. Growing Away From Me (03:04)
(Carole King)
11. Too Much Rain (03:36)
(Carole King, Toni Stern)
12. Back To California (03:28)
(Carole King)
Bonus Track:
13. Pocket Money (02:45)
(Carole King)

Exact Audio Copy V1.0 beta 3 from 29. August 2011

EAC extraction logfile from 12. April 2015, 20:49

Carole King / Music

Used drive : HL-DT-STDVDRAM GH24NS90 Adapter: 1 ID: 0

Read mode : Secure
Utilize accurate stream : Yes
Defeat audio cache : No
Make use of C2 pointers : Yes

Read offset correction : 6
Overread into Lead-In and Lead-Out : No
Fill up missing offset samples with silence : Yes
Delete leading and trailing silent blocks : No
Null samples used in CRC calculations : Yes
Used interface : Native Win32 interface for Win NT & 2000
Gap handling : Appended to previous track

Used output format : User Defined Encoder
Selected bitrate : 1024 kBit/s
Quality : High
Add ID3 tag : No
Command line compressor : C:\Program Files (x86)\FLAC\metaflac.exe
Additional command line options : -8


TOC of the extracted CD

Track | Start | Length | Start sector | End sector
––––––––––––––––––––––––––––-
1 | 0:00.00 | 3:00.46 | 0 | 13545
2 | 3:00.46 | 3:34.58 | 13546 | 29653
3 | 6:35.29 | 3:15.61 | 29654 | 44339
4 | 9:51.15 | 3:07.41 | 44340 | 58405
5 | 12:58.56 | 4:58.59 | 58406 | 80814
6 | 17:57.40 | 2:52.12 | 80815 | 93726
7 | 20:49.52 | 3:50.35 | 93727 | 111011
8 | 24:40.12 | 2:44.44 | 111012 | 123355
9 | 27:24.56 | 2:46.16 | 123356 | 135821
10 | 30:10.72 | 3:04.00 | 135822 | 149621
11 | 33:14.72 | 3:35.62 | 149622 | 165808
12 | 36:50.59 | 3:28.08 | 165809 | 181416
13 | 40:18.67 | 2:44.41 | 181417 | 193757


Track 1

Filename C:\Exact Audio Copy\Carole King\Music\01 Brother, Brother.wav

Pre-gap length 0:00:02.00

Peak level 99.1 %
Extraction speed 3.4 X
Track quality 100.0 %
Test CRC C828BBC6
Copy CRC C828BBC6
Accurately ripped (confidence 2) [2940530A] (AR v2)
Copy OK

Track 2

Filename C:\Exact Audio Copy\Carole King\Music\02 It's Going To Take Some Time.wav

Peak level 96.8 %
Extraction speed 3.9 X
Track quality 99.9 %
Test CRC CD88AF8A
Copy CRC CD88AF8A
Accurately ripped (confidence 2) [4EBDF8A1] (AR v2)
Copy OK

Track 3

Filename C:\Exact Audio Copy\Carole King\Music\03 Sweet Seasons.wav

Peak level 100.0 %
Extraction speed 4.2 X
Track quality 100.0 %
Test CRC 699D7126
Copy CRC 699D7126
Accurately ripped (confidence 2) [78977851] (AR v2)
Copy OK

Track 4

Filename C:\Exact Audio Copy\Carole King\Music\04 Some Kind Of Wonderful.wav

Peak level 81.9 %
Extraction speed 4.5 X
Track quality 100.0 %
Test CRC 2AF54234
Copy CRC 2AF54234
Accurately ripped (confidence 2) [8ED87CF9] (AR v2)
Copy OK

Track 5

Filename C:\Exact Audio Copy\Carole King\Music\05 Surely.wav

Peak level 89.9 %
Extraction speed 4.9 X
Track quality 100.0 %
Test CRC F8A765DA
Copy CRC F8A765DA
Accurately ripped (confidence 2) [DFF77EF2] (AR v2)
Copy OK

Track 6

Filename C:\Exact Audio Copy\Carole King\Music\06 Carry Your Load.wav

Peak level 82.6 %
Extraction speed 5.4 X
Track quality 100.0 %
Test CRC 50936982
Copy CRC 50936982
Accurately ripped (confidence 2) [2B30769E] (AR v2)
Copy OK

Track 7

Filename C:\Exact Audio Copy\Carole King\Music\07 Music.wav

Peak level 99.9 %
Extraction speed 5.6 X
Track quality 100.0 %
Test CRC DEC10BDF
Copy CRC DEC10BDF
Accurately ripped (confidence 2) [AF8AE363] (AR v2)
Copy OK

Track 8

Filename C:\Exact Audio Copy\Carole King\Music\08 Song Of Long Ago.wav

Peak level 100.0 %
Extraction speed 5.6 X
Track quality 100.0 %
Test CRC 9A0DE02B
Copy CRC 9A0DE02B
Accurately ripped (confidence 2) [9BA850A1] (AR v2)
Copy OK

Track 9

Filename C:\Exact Audio Copy\Carole King\Music\09 Brighter.wav

Peak level 85.1 %
Extraction speed 5.8 X
Track quality 100.0 %
Test CRC 673B997F
Copy CRC 673B997F
Accurately ripped (confidence 2) [B528CEF3] (AR v2)
Copy OK

Track 10

Filename C:\Exact Audio Copy\Carole King\Music\10 Growing Away From Me.wav

Peak level 99.9 %
Extraction speed 6.3 X
Track quality 100.0 %
Test CRC 90D889F8
Copy CRC 90D889F8
Accurately ripped (confidence 2) [146E0C81] (AR v2)
Copy OK

Track 11

Filename C:\Exact Audio Copy\Carole King\Music\11 Too Much Rain.wav

Peak level 86.4 %
Extraction speed 6.5 X
Track quality 100.0 %
Test CRC 682F7E87
Copy CRC 682F7E87
Accurately ripped (confidence 2) [1BA6BC7D] (AR v2)
Copy OK

Track 12

Filename C:\Exact Audio Copy\Carole King\Music\12 Back To California.wav

Peak level 91.6 %
Extraction speed 6.4 X
Track quality 99.8 %
Test CRC 8085135F
Copy CRC 8085135F
Accurately ripped (confidence 2) [8ADCE3D1] (AR v2)
Copy OK

Track 13

Filename C:\Exact Audio Copy\Carole King\Music\13 Pocket Money.wav

Pre-gap length 0:00:04.32

Peak level 100.0 %
Extraction speed 6.9 X
Track quality 100.0 %
Test CRC 0A266971
Copy CRC 0A266971
Accurately ripped (confidence 2) [BAB78CEF] (AR v2)
Copy OK


All tracks accurately ripped

No errors occurred

End of status report

==== Log checksum B7D40377D96F1137526A7ABF9754AB00EFCDBA21204F15FCFF674887E0BCAE56 ====

foobar2000 1.3.7 / Dynamic Range Meter 1.1.1
log date: 2015-06-24 00:14:02

––––––––––––––––––––––––––––––––––––––––
Analyzed: Carole King / Music
––––––––––––––––––––––––––––––––––––––––

DR Peak RMS Duration Track
––––––––––––––––––––––––––––––––––––––––
DR11 -0.07 dB -13.61 dB 3:01 ?-01 Brother, Brother
DR12 -0.28 dB -15.50 dB 3:35 ?-02 It's Going To Take Some Time
DR11 0.00 dB -13.11 dB 3:16 ?-03 Sweet Seasons
DR11 -1.73 dB -16.15 dB 3:08 ?-04 Some Kind Of Wonderful
DR13 -0.92 dB -17.68 dB 4:59 ?-05 Surely
DR12 -1.65 dB -16.52 dB 2:52 ?-06 Carry Your Load
DR11 0.00 dB -13.40 dB 3:50 ?-07 Music
DR12 0.00 dB -14.77 dB 2:45 ?-08 Song Of Long Ago
DR11 -1.39 dB -14.71 dB 2:46 ?-09 Brighter
DR11 -0.01 dB -14.23 dB 3:04 ?-10 Growing Away From Me
DR12 -1.26 dB -16.96 dB 3:36 ?-11 Too Much Rain
DR11 -0.76 dB -14.12 dB 3:28 ?-12 Back To California
DR12 0.00 dB -15.37 dB 2:45 ?-13 Pocket Money
––––––––––––––––––––––––––––––––––––––––

Number of tracks: 13
Official DR value: DR12

Samplerate: 44100 Hz
Channels: 2
Bits per sample: 16
Bitrate: 769 kbps
Codec: FLAC
================================================================================


All thanks to - saintsmon


password: BlondStyle

Uploadable