Carole King - Rhymes & Reasons (1972) [2007, Japanese Paper Sleeve]

Posted By: BlondStyle
Carole King - Rhymes & Reasons (1972) [2007, Japanese Paper Sleeve]

Carole King - Rhymes & Reasons (1972) [2007, Japanese Paper Sleeve]
Pop/Rock, Singer/Songwriter | EAC Rip | FLAC, Tracks+CUE + LOG + Covers-600dpi (JPEG) | 38:02 Min | 224,99 Mb
Label: Epic (Japan) | Released: 2007, October, 31
Carole King - Rhymes & Reasons (1972) [2007, Japanese Paper Sleeve]

is a 1972 album by American singer-songwriter . The album features a single , which topped the Billboard Adult Contemporary chart and peaked at #24 on the Pop chart. The album itself also became a hit, reaching #2 on the Billboard 200 chart. On her second follow-up to and third new album in less than two years, turned entirely to new compositions, most of them co-written with , rather than relying partly on songs from her back catalog. The result was a thinner collection than or , although the album still went to number two and featured the Top 25 hit as well as the warm love song

Release of the album: 1972, October [LP Ode Records, Cat.# [url=http://www.discogs.com/Carole-King-Rhymes-Reasons/release/1512404]SP-77016, USA]
Release of this CD: 2007, September, 26 [CD Epic (Japan), Cat.# [url=http://www.discogs.com/Carole-King-Rhymes-Reasons/release/6968092]EICP-844 / EAN: 4547366032482]
Manufactured By – Sony Music Japan International Inc.

Carole King - Rhymes & Reasons (1972) [2007, Japanese Paper Sleeve]


Arranged By [Strings] – Norman Kurban
Arranged By [Strings], Viola – David Campbell
Bass, Double Bass [String] – Charles Larkey
Cello – Nathaniel Rose, Terry King
Drums, Vibraslap – Harvey Mason
Engineer – Hank Cicalo
Engineer [Assistant] – Steve Mitchell
Flugelhorn, Trumpet – Robert "Bobby" Bryant
Flute – Ernie Watts
Guitar – Daniel Kortchmar, David T. Walker
Producer – Lou Adler
Steel Guitar – Red Rhodes
Tambourine, Shaker, Bells, Congas, Bongos – Ms. Bobbye Hall
Trombone – George Bohannon
Viola – Carole S. Mukogawa
Violin – Barry Socher, Eliot Chapio, Gorden H. Marron, Marcy E. Dicterow, Polly Sweeney, Sheldon Sanov
Vocals, Piano, Clavinet, Acoustic Guitar, Electric Piano [Wurlitzer] – Carole King


Carole King - Rhymes & Reasons (1972) [2007, Japanese Paper Sleeve]


Tracklist:

01. Come Down Easy (03:06)
(Carole King, Toni Stern)
02. My My She Cries (02:20)
(Carole King, Toni Stern)
03. Peace In The Valley (03:24)
(Carole King, Toni Stern)
04. Feeling Sad Tonight (03:14)
(Carole King, Toni Stern)
05. The First Day In August (02:50)
(Carole King, Charles Larkey)
06. Bitter With The Sweet (02:30)
(Carole King)
07. Goodbye Don't Mean I'm Gone (03:35)
(Carole King)
08. Stand Behind Me (02:30)
(Carole King)
09. Gotta Get Through Another Day (02:35)
(Carole King)
10. I Think I Can Hear You (03:26)
(Carole King)
11. Ferguson Road (02:40)
(Carole King, Gerry Goffin)
12. Been To Canaan (03:43)
(Carole King)
Bonus Track:
13. Ties That Bind (02:10)
(Carole King)

Exact Audio Copy V1.0 beta 3 from 29. August 2011

EAC extraction logfile from 13. April 2015, 22:57

Carole King / Rhymes & Reasons

Used drive : HL-DT-STDVDRAM GH24NS90 Adapter: 1 ID: 0

Read mode : Secure
Utilize accurate stream : Yes
Defeat audio cache : No
Make use of C2 pointers : Yes

Read offset correction : 6
Overread into Lead-In and Lead-Out : No
Fill up missing offset samples with silence : Yes
Delete leading and trailing silent blocks : No
Null samples used in CRC calculations : Yes
Used interface : Native Win32 interface for Win NT & 2000
Gap handling : Appended to previous track

Used output format : User Defined Encoder
Selected bitrate : 1024 kBit/s
Quality : High
Add ID3 tag : No
Command line compressor : C:\Program Files (x86)\FLAC\metaflac.exe
Additional command line options : -8


TOC of the extracted CD

Track | Start | Length | Start sector | End sector
––––––––––––––––––––––––––––-
1 | 0:00.00 | 3:06.22 | 0 | 13971
2 | 3:06.22 | 2:19.41 | 13972 | 24437
3 | 5:25.63 | 3:24.11 | 24438 | 39748
4 | 8:49.74 | 3:13.56 | 39749 | 54279
5 | 12:03.55 | 2:49.50 | 54280 | 67004
6 | 14:53.30 | 2:29.52 | 67005 | 78231
7 | 17:23.07 | 3:35.35 | 78232 | 94391
8 | 20:58.42 | 2:29.58 | 94392 | 105624
9 | 23:28.25 | 2:35.31 | 105625 | 117280
10 | 26:03.56 | 3:26.20 | 117281 | 132750
11 | 29:30.01 | 2:39.59 | 132751 | 144734
12 | 32:09.60 | 3:42.55 | 144735 | 161439
13 | 35:52.40 | 2:09.56 | 161440 | 171170


Track 1

Filename C:\Exact Audio Copy\Carole King\Rhymes & Reasons\01 Come Down Easy.wav

Pre-gap length 0:00:02.00

Peak level 96.4 %
Extraction speed 3.4 X
Track quality 100.0 %
Test CRC FC8E64B1
Copy CRC FC8E64B1
Accurately ripped (confidence 2) [025EBF4E] (AR v1)
Copy OK

Track 2

Filename C:\Exact Audio Copy\Carole King\Rhymes & Reasons\02 My My She Cries.wav

Peak level 100.0 %
Extraction speed 3.7 X
Track quality 100.0 %
Test CRC 69713F20
Copy CRC 69713F20
Accurately ripped (confidence 2) [29F1FA63] (AR v1)
Copy OK

Track 3

Filename C:\Exact Audio Copy\Carole King\Rhymes & Reasons\03 Peace In The Valley.wav

Peak level 100.0 %
Extraction speed 4.1 X
Track quality 100.0 %
Test CRC AEBB26A6
Copy CRC AEBB26A6
Accurately ripped (confidence 2) [EDD32635] (AR v1)
Copy OK

Track 4

Filename C:\Exact Audio Copy\Carole King\Rhymes & Reasons\04 Feeling Sad Tonight.wav

Pre-gap length 0:00:01.49

Peak level 100.0 %
Extraction speed 4.4 X
Track quality 99.8 %
Test CRC 009B0B1F
Copy CRC 009B0B1F
Accurately ripped (confidence 2) [390522A0] (AR v1)
Copy OK

Track 5

Filename C:\Exact Audio Copy\Carole King\Rhymes & Reasons\05 The First Day In August.wav

Pre-gap length 0:00:01.40

Peak level 80.9 %
Extraction speed 4.9 X
Track quality 100.0 %
Test CRC 0749F139
Copy CRC 0749F139
Accurately ripped (confidence 2) [F2A708F3] (AR v1)
Copy OK

Track 6

Filename C:\Exact Audio Copy\Carole King\Rhymes & Reasons\06 Bitter With The Sweet.wav

Pre-gap length 0:00:00.61

Peak level 86.7 %
Extraction speed 4.8 X
Track quality 100.0 %
Test CRC 0F017476
Copy CRC 0F017476
Accurately ripped (confidence 2) [3D73E9FC] (AR v1)
Copy OK

Track 7

Filename C:\Exact Audio Copy\Carole King\Rhymes & Reasons\07 Goodbye Don't Mean I'm Gone.wav

Pre-gap length 0:00:00.56

Peak level 98.3 %
Extraction speed 5.4 X
Track quality 100.0 %
Test CRC 149BE54C
Copy CRC 149BE54C
Accurately ripped (confidence 2) [274A7F25] (AR v1)
Copy OK

Track 8

Filename C:\Exact Audio Copy\Carole King\Rhymes & Reasons\08 Stand Behind Me.wav

Peak level 99.6 %
Extraction speed 5.2 X
Track quality 99.8 %
Test CRC EF142096
Copy CRC EF142096
Accurately ripped (confidence 2) [0A8DFB30] (AR v1)
Copy OK

Track 9

Filename C:\Exact Audio Copy\Carole King\Rhymes & Reasons\09 Gotta Get Through Another Day.wav

Peak level 82.4 %
Extraction speed 5.5 X
Track quality 100.0 %
Test CRC 03BA1245
Copy CRC 03BA1245
Accurately ripped (confidence 2) [399EC513] (AR v1)
Copy OK

Track 10

Filename C:\Exact Audio Copy\Carole King\Rhymes & Reasons\10 I Think I Can Hear You.wav

Pre-gap length 0:00:00.66

Peak level 100.0 %
Extraction speed 6.0 X
Track quality 100.0 %
Test CRC 0F597901
Copy CRC 0F597901
Accurately ripped (confidence 2) [9C816916] (AR v1)
Copy OK

Track 11

Filename C:\Exact Audio Copy\Carole King\Rhymes & Reasons\11 Ferguson Road.wav

Peak level 92.8 %
Extraction speed 5.9 X
Track quality 100.0 %
Test CRC 84962F34
Copy CRC 84962F34
Accurately ripped (confidence 2) [3BFAC172] (AR v1)
Copy OK

Track 12

Filename C:\Exact Audio Copy\Carole King\Rhymes & Reasons\12 Been To Canaan.wav

Peak level 80.1 %
Extraction speed 6.1 X
Track quality 99.9 %
Test CRC 39D4C3B4
Copy CRC 39D4C3B4
Accurately ripped (confidence 2) [C77BA2B5] (AR v1)
Copy OK

Track 13

Filename C:\Exact Audio Copy\Carole King\Rhymes & Reasons\13 Ties That Bind.wav

Pre-gap length 0:00:04.56

Peak level 95.5 %
Extraction speed 6.6 X
Track quality 100.0 %
Test CRC 4119E539
Copy CRC 4119E539
Accurately ripped (confidence 2) [82DDFE92] (AR v1)
Copy OK


All tracks accurately ripped

No errors occurred

End of status report

==== Log checksum 5A81CDE361568EFCFB61BB60463A5AD8EA0F2E465D8EA2C3D8E4C523C0F8BDCE ====

foobar2000 1.3.7 / Dynamic Range Meter 1.1.1
log date: 2015-06-20 22:38:55

––––––––––––––––––––––––––––––––––––––––
Analyzed: Carole King / Rhymes & Reasons
––––––––––––––––––––––––––––––––––––––––

DR Peak RMS Duration Track
––––––––––––––––––––––––––––––––––––––––
DR10 -0.31 dB -12.88 dB 3:06 ?-01 Come Down Easy
DR12 0.00 dB -16.19 dB 2:20 ?-02 My My She Cries
DR12 0.00 dB -15.77 dB 3:24 ?-03 Peace In The Valley
DR12 0.00 dB -15.25 dB 3:14 ?-04 Feeling Sad Tonight
DR11 -1.84 dB -16.64 dB 2:50 ?-05 The First Day In August
DR10 -1.24 dB -15.12 dB 2:30 ?-06 Bitter With The Sweet
DR12 -0.14 dB -15.06 dB 3:35 ?-07 Goodbye Don't Mean I'm Gone
DR11 -0.03 dB -14.10 dB 2:30 ?-08 Stand Behind Me
DR10 -1.68 dB -15.09 dB 2:35 ?-09 Gotta Get Through Another Day
DR12 0.00 dB -15.87 dB 3:26 ?-10 I Think I Can Hear You
DR12 -0.64 dB -15.88 dB 2:40 ?-11 Ferguson Road
DR10 -1.92 dB -14.87 dB 3:43 ?-12 Been To Canaan
DR12 -0.39 dB -15.12 dB 2:10 ?-13 Ties That Bind
––––––––––––––––––––––––––––––––––––––––

Number of tracks: 13
Official DR value: DR11

Samplerate: 44100 Hz
Channels: 2
Bits per sample: 16
Bitrate: 826 kbps
Codec: FLAC
================================================================================


All thanks to - saintsmon


password: BlondStyle

Uploadable