Subcategories

Carpenters - Interpretations: A 25th Anniversary Celebration (1994) Repost

Posted By: Andi_Deris
Carpenters - Interpretations: A 25th Anniversary Celebration (1994) Repost

Carpenters - Interpretations: A 25th Anniversary Celebration (1994)
EAC Rip | FLAC: Image+Cue+Log | 477 Mb | MP3 CBR 320 kbps | 208 Mb | Scans | 53 Mb | Time: 01:19:31
A&M Records, Inc. | 540 251-2
Pop, AM Pop, Soft Rock

Fantastic compilation from the Carpenters! INTERPRETATIONS' main theme is a collection of songs not home-brewed by Richard Carpenter, but rather the group's interpretation of others material. Initially released in the UK and Canada in 1994, the album was re-worked for a US release in 1995, both claiming to be part of a 25th anniversary celebration.The UK/Canada release of the album (540 251-2), arrived in stores in 1994 featured 21 tracks, as opposed to the now-common US version with 16 tracks.

The longer track list includes “Sing”, “Where Do I Go From Here”, “Desperado”, “Ticket To Ride”, “If I Had You”, “Please Mr. Postman”, and “You're The One” while not including “I Believe You” and “Reason To Believe.” In 1999, for the 30th Anniversary on the A&M label, the UK released INTERPRETATIONS in the Remastered Classics series. Though it had the black label with the red printing like others in the series, there’s no sonic difference between it and the 1994 version.

INTERPRETATIONS also served as the title to a video release the same year, which featured somewhat different titles from the album.

Carpenters - Interpretations: A 25th Anniversary Celebration (1994) Repost




Track Listing

01. Without A Song (a cappella version) (01:01)
02. Sing (1994 remix) (03:18)
03. Bless The Beasts and Children (1985 remix) (03:15)
04. This Masquerade (1990 remix) (04:53)
05. Solitaire (04:40)
06. When I Fall In Love (1990 remix) (03:08)
07. From This Moment On (01:57)
08. Tryin' To Get The Feeling Again (04:21)
09. When It's Gone (It's Just Gone) (05:01)
10. Where Do I Go From Here? (04:25)
11. Desperado (1994 remix) (03:37)
12. Superstar (1991 remix) (03:49)
13. Rainy Days And Mondays (1991 remix) (03:36)
14. Ticket To Ride (1973 version - reversed) (04:10)
15. If I Had You (1989 remix) (03:57)
16. Please Mr. Postman (1991 remix) (02:47)
17. We've Only Just Begun (1985 remix) (03:05)
18. Calling Occupants Of Interplanetary Craft (1989 remix) (07:09)
19. Little Girl Blues (03:24)
20. You're The One (04:14)
21. (They Long To Be) Close To You (1991 remix) (03:43)

Produced by Richard Carpenter

Exact Audio Copy V1.0 beta 1 from 15. November 2010

EAC extraction logfile from 25. November 2012, 13:50

Carpenters / Interpretations: A 25th Anniversary Celebration

Used drive : Optiarc DVD RW AD-7263S Adapter: 3 ID: 0

Read mode : Secure
Utilize accurate stream : Yes
Defeat audio cache : Yes
Make use of C2 pointers : No

Read offset correction : 48
Overread into Lead-In and Lead-Out : No
Fill up missing offset samples with silence : Yes
Delete leading and trailing silent blocks : No
Null samples used in CRC calculations : Yes
Used interface : Native Win32 interface for Win NT & 2000

Used output format : User Defined Encoder
Selected bitrate : 32 kBit/s
Quality : High
Add ID3 tag : No
Command line compressor : C:\Program Files\Exact Audio Copy\Flac\flac.exe
Additional command line options : -T "DATE=%y" -T "GENRE=%m" -8 -V %s


TOC of the extracted CD

Track | Start | Length | Start sector | End sector
––––––––––––––––––––––––––––-
1 | 0:00.32 | 1:01.15 | 32 | 4621
2 | 1:01.47 | 3:17.68 | 4622 | 19464
3 | 4:19.40 | 3:15.00 | 19465 | 34089
4 | 7:34.40 | 4:52.60 | 34090 | 56049
5 | 12:27.25 | 4:39.65 | 56050 | 77039
6 | 17:07.15 | 3:07.70 | 77040 | 91134
7 | 20:15.10 | 1:56.37 | 91135 | 99871
8 | 22:11.47 | 4:21.08 | 99872 | 119454
9 | 26:32.55 | 5:00.52 | 119455 | 142006
10 | 31:33.32 | 4:24.60 | 142007 | 161866
11 | 35:58.17 | 3:36.73 | 161867 | 178139
12 | 39:35.15 | 3:49.15 | 178140 | 195329
13 | 43:24.30 | 3:36.20 | 195330 | 211549
14 | 47:00.50 | 4:10.20 | 211550 | 230319
15 | 51:10.70 | 3:56.67 | 230320 | 248086
16 | 55:07.62 | 2:47.05 | 248087 | 260616
17 | 57:54.67 | 3:05.08 | 260617 | 274499
18 | 61:00.00 | 7:09.05 | 274500 | 306679
19 | 68:09.05 | 3:24.27 | 306680 | 322006
20 | 71:33.32 | 4:14.28 | 322007 | 341084
21 | 75:47.60 | 3:42.45 | 341085 | 357779


Range status and errors

Selected range

Filename C:\Documents and Settings\maxim\Мои документы\Моя музыка\Carpenters - Interpretations- A 25th Anniversary Celebration.wav

Peak level 97.7 %
Extraction speed 0.2 X
Range quality 99.9 %
Test CRC E55610FD
Copy CRC E55610FD
Copy OK

No errors occurred


AccurateRip summary

Track 1 cannot be verified as accurate (confidence 22) [9A9A14C1], AccurateRip returned [22D25190]
Track 2 cannot be verified as accurate (confidence 21) [C4176164], AccurateRip returned [CC4F98C9]
Track 3 cannot be verified as accurate (confidence 22) [CA24BB6B], AccurateRip returned [CA376247]
Track 4 cannot be verified as accurate (confidence 22) [69E9A1F9], AccurateRip returned [D23C1F28]
Track 5 cannot be verified as accurate (confidence 22) [9AC2B0BF], AccurateRip returned [E65765DA]
Track 6 cannot be verified as accurate (confidence 22) [E8FF6B3B], AccurateRip returned [D12A6AE5]
Track 7 cannot be verified as accurate (confidence 22) [FF0258F4], AccurateRip returned [7A17FF8A]
Track 8 cannot be verified as accurate (confidence 22) [507700D4], AccurateRip returned [29108046]
Track 9 cannot be verified as accurate (confidence 22) [CBA2FA66], AccurateRip returned [D7047CC6]
Track 10 cannot be verified as accurate (confidence 22) [0BE28150], AccurateRip returned [1F2727D8]
Track 11 cannot be verified as accurate (confidence 22) [DC730E81], AccurateRip returned [A59C85C0]
Track 12 cannot be verified as accurate (confidence 22) [2A1EC844], AccurateRip returned [E2009E59]
Track 13 cannot be verified as accurate (confidence 22) [EDCB7FE8], AccurateRip returned [3199C85D]
Track 14 cannot be verified as accurate (confidence 22) [7F18784A], AccurateRip returned [49F5353C]
Track 15 cannot be verified as accurate (confidence 22) [E28DBAEA], AccurateRip returned [1A1ACB71]
Track 16 cannot be verified as accurate (confidence 21) [435A0A9F], AccurateRip returned [D61B304D]
Track 17 cannot be verified as accurate (confidence 22) [C5CFA1EA], AccurateRip returned [E5E6ABFA]
Track 18 cannot be verified as accurate (confidence 22) [C553EADD], AccurateRip returned [208DFBAD]
Track 19 cannot be verified as accurate (confidence 22) [21F77DFF], AccurateRip returned [F281CA27]
Track 20 cannot be verified as accurate (confidence 21) [052EC189], AccurateRip returned [53F2C96D]
Track 21 cannot be verified as accurate (confidence 20) [296C6E28], AccurateRip returned [14C4AB8C]

No tracks could be verified as accurate
You may have a different pressing from the one(s) in the database

End of status report

==== Log checksum E821615DB738CA7392CAE29B3AAF2EB9B3DD2AA4E92E985E779B7F6A51E4FDF3 ====


Many thanks to the original uploader: sergey57s