Subcategories

Castle Canyon - Gods of 1973 (2009)

Posted By: pr0gger
Castle Canyon - Gods of 1973 (2009)

Castle Canyon - Gods of 1973 (2009)
EAC | FLAC tracks +CUE +LOG +600 dpi Full Scans = 287 Mb | RAR 3% | RS
Genre: Progressive Rock / Instrumental | Label: Bottomfeeder Records | Catalog Number: BF-05
Castle Canyon - Gods of 1973 (2009)

Cosmos Music (France), March 1, 2010 - Olivier Pelletant's review:
OK, the title of this album is rather plain and cover most 'cheap', but damn that its content is good! Castle Canyon is a American group, totally unknown, but has yet cracked shortly in the early 70s. A long tunnel over 30 years and a resurrection later….. Gods Of 1973 Thus, a progressive instrumental 'seventies' of very high bill, dominated by the full panoply of keyboards 'vintage' supported by an impeccable rhythm section and guitar more discreet but no less perfect. To clarify further, there may well sure to add that Castle Canyon sometimes evokes ELP, Trace and other Quill, but his personality is such that the Gods of 1973 made very quickly forget sake of rapprochement on the part of the listener. A treat!

Samples at MySpace

Tracks:
1. The Mighty Arp (5:14)
2. Gods of 1973 (4:30)
3. Random Gates (0:22)
4. Canoeing on the River Styx (7:29)
5. Bombs Away (3:30)
6. Fjordic Njord (1:23)
7. Triskaidekaphobia (12:54)
8. Symphony of Sorrowful Songs ~ Cantabile Semplice (8:04)
9. The Last Song Ever (3:42)

Total time 47:08

Line-up:
- Fred Chalenor / bass
- Erik Ian Walker / keyboards
- Paul Elias / drums

Exact Audio Copy V0.99 prebeta 4 from 23. January 2008

EAC extraction logfile from 6. April 2010, 12:18

Castle Canyon / Gods of 1973

Used drive : ASUS DRW-2014S1 Adapter: 1 ID: 0

Read mode : Secure
Utilize accurate stream : Yes
Defeat audio cache : Yes
Make use of C2 pointers : No

Read offset correction : 6
Overread into Lead-In and Lead-Out : No
Fill up missing offset samples with silence : Yes
Delete leading and trailing silent blocks : No
Null samples used in CRC calculations : Yes
Used interface : Installed external ASPI interface
Gap handling : Appended to previous track

Used output format : User Defined Encoder
Selected bitrate : 768 kBit/s
Quality : High
Add ID3 tag : No
Command line compressor : C:\Program Files\Exact Audio Copy\FLAC\FLAC.EXE
Additional command line options : -6 -V -T "ARTIST=%a" -T "TITLE=%t" -T "ALBUM=%g" -T "DATE=%y" -T "TRACKNUMBER=%n" -T "GENRE=%m" -T "COMMENT=%e" %s -o %d


TOC of the extracted CD

Track | Start | Length | Start sector | End sector
––––––––––––––––––––––––––––-
1 | 0:00.00 | 5:14.16 | 0 | 23565
2 | 5:14.16 | 4:30.07 | 23566 | 43822
3 | 9:44.23 | 0:22.12 | 43823 | 45484
4 | 10:06.35 | 7:29.47 | 45485 | 79206
5 | 17:36.07 | 3:30.47 | 79207 | 95003
6 | 21:06.54 | 1:23.06 | 95004 | 101234
7 | 22:29.60 | 12:54.68 | 101235 | 159352
8 | 35:24.53 | 8:04.69 | 159353 | 195721
9 | 43:29.47 | 3:42.27 | 195722 | 212398


Track 1

Filename C:\byPr0gger\Castle Canyon - Gods of 1973 (2009, Bottomfeeder Records, BF-05)[FLAC]\01. The Mighty Arp.wav

Pre-gap length 0:00:02.00

Peak level 96.7 %
Track quality 100.0 %
Test CRC 61B59250
Copy CRC 61B59250
Accurately ripped (confidence 1) [F4BD771A]
Copy OK

Track 2

Filename C:\byPr0gger\Castle Canyon - Gods of 1973 (2009, Bottomfeeder Records, BF-05)[FLAC]\02. Gods of 1973.wav

Peak level 96.0 %
Track quality 100.0 %
Test CRC 945D5CBD
Copy CRC 945D5CBD
Accurately ripped (confidence 1) [B525D061]
Copy OK

Track 3

Filename C:\byPr0gger\Castle Canyon - Gods of 1973 (2009, Bottomfeeder Records, BF-05)[FLAC]\03. Random Gates (1973).wav

Peak level 46.9 %
Track quality 100.0 %
Test CRC 63F4E619
Copy CRC 63F4E619
Accurately ripped (confidence 1) [EF3A46E2]
Copy OK

Track 4

Filename C:\byPr0gger\Castle Canyon - Gods of 1973 (2009, Bottomfeeder Records, BF-05)[FLAC]\04. Canoeing on the River Styx.wav

Peak level 94.6 %
Track quality 99.9 %
Test CRC B69B2E5F
Copy CRC B69B2E5F
Accurately ripped (confidence 1) [3262FEEF]
Copy OK

Track 5

Filename C:\byPr0gger\Castle Canyon - Gods of 1973 (2009, Bottomfeeder Records, BF-05)[FLAC]\05. Bombs Away (1973).wav

Peak level 96.2 %
Track quality 100.0 %
Test CRC C859EA20
Copy CRC C859EA20
Accurately ripped (confidence 1) [30CFB7E2]
Copy OK

Track 6

Filename C:\byPr0gger\Castle Canyon - Gods of 1973 (2009, Bottomfeeder Records, BF-05)[FLAC]\06. Fjordic Njord (1974).wav

Peak level 89.1 %
Track quality 100.0 %
Test CRC 1EFDCBB7
Copy CRC 1EFDCBB7
Accurately ripped (confidence 1) [69359E63]
Copy OK

Track 7

Filename C:\byPr0gger\Castle Canyon - Gods of 1973 (2009, Bottomfeeder Records, BF-05)[FLAC]\07. Triskaidekaphobia (1973).wav

Peak level 98.2 %
Track quality 100.0 %
Test CRC 6BE154E1
Copy CRC 6BE154E1
Accurately ripped (confidence 1) [861DE6D1]
Copy OK

Track 8

Filename C:\byPr0gger\Castle Canyon - Gods of 1973 (2009, Bottomfeeder Records, BF-05)[FLAC]\08. Symphony of Sorrowful Songs ~ Cantabile Semplice.wav

Peak level 98.8 %
Track quality 100.0 %
Test CRC C356B858
Copy CRC C356B858
Accurately ripped (confidence 1) [95F8B10A]
Copy OK

Track 9

Filename C:\byPr0gger\Castle Canyon - Gods of 1973 (2009, Bottomfeeder Records, BF-05)[FLAC]\09. The Last Song Ever.wav

Peak level 98.8 %
Track quality 100.0 %
Test CRC A9D50A6C
Copy CRC A9D50A6C
Accurately ripped (confidence 1) [4437A693]
Copy OK


All tracks accurately ripped

No errors occurred

End of status report


Download album:
Part 1 | Part 2
No pass