Subcategories

Cathy Jean - I Want (1998)

Posted By: Designol
Cathy Jean - I Want (1998)

Cathy Jean - I Want (1998)
EAC | FLAC | Image (Cue&Log) ~ 370 Mb | Mp3 (CBR320) ~ 130 Mb | Scans ~ 85 Mb
Electric Blues, Blues-Rock | Label: Cathy Jean | # CJ97982 | Time: 00:56:45

This ultra-sexy blues diva scores again with another incredible CD that is chock full of 15 self-penned songs with assistance from a steller team of musicians. Judging the sexy cover shot on the CD may prejudice you from checking out the music inside. You can't judge the music by the hot and steamy pin-up poses alone. The music speaks volumes all by itself. Cathy Jean sings "the blues" with a "take-no-prisoners" attitude, singing of loves lost and loves found, life's hits and misses, not afraid to stomp on those that get in her way or taking on those who have done her wrong. A powerful collection that is simply smokin'!! Cathy Jean sings with an expressive, very melodic and powerful voice, more in common with Bessie Smith, Janis Joplin, or Aretha Franklin. Her vocal range is almost limitless– whether she is singing an all-out rocker like "I'm Your Girl", the jump blues of "Be Glad", or songs influenced by the soulfulness of Tina Turner and the incomparable Memphis Stax-Volt sounds, she has the power to draw you into each song and to have you, the listener, identify with and to feel all of the emotions being generated there. Her performance is a major tour-de-force! Along for support are the talents of Jon Carroll and Bengie Porecki on organ; Jerry Queen on sax; and Keith Stafford's ballsy guitar work. Quite an extraordinary team! Nighthawks Mark Wenner contributes his own special blues harp on the punches flying, foot stompin' cut, "Unfinished Business". Tracks to watch out for: "Why Don't You See Me", a touching and quite catchy tune penned by Concrete Blonde's Johnette Napolitano; and, the last song on the CD, the hauntingly beautiful "Blues Psalm" which finds Cathy soulfully and reverently singing to a lonely saxophone. There is an emotional fervor with which she sings the prayer-like tune that cuts deep into your soul. With music this good it is hard to fathom why Cathy Jean and her bandmates aren't headlining more festivals or bombarding more clubs with greater frequency. This is extremely short-sighted on many peoples parts. "I Want" has an enormous amount of depth, heart, and a blistering sense of attitude. The music jumps from start to finish. Check-out Cathy Jean at your earliest opportunity. Take her home and relish the experience!!!

Review by NEW YORK BLUES SOCIETY-MANHATTAN

Cathy Jean - I Want (1998)


Tracklist:

01. Be Glad (3:03)
02. I Want (4:00)
03. **4 in the Morning** (4:41)
04. Unfinished Business (3:09)
05. How Many (4:02)
06. Leave Me Alone (3:24)
07. Why Don't You See Me (4:06)
08. Tallow Shuffle (3:05)
09. Please Stop Seeing That Girl (3:33)
10. I'm Your Girl (4:19)
11. See You Tomorrow (3:59)
12. Blues Singin' Alcoholic (2:33)
13. I Want Your Mother to Know / Rotten B. (3:36)
14. Suffer (6:23)
15. Blues Psalm (2:51)


Exact Audio Copy V1.1 from 23. June 2015

Отчёт EAC об извлечении, выполненном 3. июня 2017, 10:57

Cathy Jean / I Want

Дисковод: TEAC CD-W552GB Adapter: 1 ID: 0

Режим чтения : Достоверность
Использование точного потока : Да
Отключение кэша аудио : Да
Использование указателей C2 : Нет

Коррекция смещения при чтении : 6
Способность читать области Lead-in и Lead-out : Нет
Заполнение пропущенных сэмплов тишиной : Да
Удаление блоков с тишиной в начале и конце : Нет
При вычислениях CRC использовались нулевые сэмплы : Да
Интерфейс : Встроенный Win32-интерфейс для Win NT/2000

Выходной формат : Пользовательский кодировщик
Выбранный битрейт : 1024 kBit/s
Качество : Высокий
Добавление ID3-тега : Нет
Утилита сжатия : C:\Program Files (x86)\Exact Audio Copy\Flac\flac.exe
Дополнительные параметры : -V -8 -T "Date=%year%" -T "Genre=%genre%" %source%


TOC извлечённого CD

Трек | Старт | Длительность | Начальный сектор | Конечный сектор
––––––––––––––––––––––––––––––––––-
1 | 0:00.00 | 3:03.02 | 0 | 13726
2 | 3:03.02 | 3:59.63 | 13727 | 31714
3 | 7:02.65 | 4:41.02 | 31715 | 52791
4 | 11:43.67 | 3:09.15 | 52792 | 66981
5 | 14:53.07 | 4:02.08 | 66982 | 85139
6 | 18:55.15 | 3:23.65 | 85140 | 100429
7 | 22:19.05 | 4:06.02 | 100430 | 118881
8 | 26:25.07 | 3:05.30 | 118882 | 132786
9 | 29:30.37 | 3:32.58 | 132787 | 148744
10 | 33:03.20 | 4:19.15 | 148745 | 168184
11 | 37:22.35 | 3:58.70 | 168185 | 186104
12 | 41:21.30 | 2:33.37 | 186105 | 197616
13 | 43:54.67 | 3:36.03 | 197617 | 213819
14 | 47:30.70 | 6:23.17 | 213820 | 242561
15 | 53:54.12 | 2:50.53 | 242562 | 255364


Характеристики диапазона извлечения и сообщения об ошибках

Выбранный диапазон

Имя файла D:\MuCD\Cathy Jean - I Want\Cathy Jean - I Want.wav

Пиковый уровень 97.9 %
Скорость извлечения 8.6 X
Качество диапазона 100.0 %
CRC теста 542298AC
CRC копии 542298AC
Копирование… OK

Ошибок не произошло


AccurateRip: сводка

Трек 1 : извлечено точно (доверие 4) [D5500850] (AR v2)
Трек 2 : извлечено точно (доверие 4) [03962D89] (AR v2)
Трек 3 : извлечено точно (доверие 4) [8210584B] (AR v2)
Трек 4 : извлечено точно (доверие 4) [4BFC29C1] (AR v2)
Трек 5 : извлечено точно (доверие 4) [FFD4F3D9] (AR v2)
Трек 6 : извлечено точно (доверие 4) [6808BEF1] (AR v2)
Трек 7 : извлечено точно (доверие 4) [7956B23F] (AR v2)
Трек 8 : извлечено точно (доверие 4) [CFADED82] (AR v2)
Трек 9 : извлечено точно (доверие 4) [7E4C9638] (AR v2)
Трек 10 : извлечено точно (доверие 3) [A77DD05A] (AR v2)
Трек 11 : извлечено точно (доверие 4) [C15FECCA] (AR v2)
Трек 12 : извлечено точно (доверие 3) [D076D0DB] (AR v2)
Трек 13 : извлечено точно (доверие 3) [E566A9A5] (AR v2)
Трек 14 : извлечено точно (доверие 3) [B3F9F01C] (AR v2)
Трек 15 : извлечено точно (доверие 4) [8FE575FA] (AR v2)

Все треки извлечены точно

Конец отчёта

==== Контрольная сумма отчёта 356328EC4F65FEFF398E696332EE8F5AFEB18D2266BB952FA261F92E7A3109E4 ====

foobar2000 1.2 / Dynamic Range Meter 1.1.1
log date: 2017-06-03 20:31:37

––––––––––––––––––––––––––––––––––––––––
Analyzed: Cathy Jean / I Want
––––––––––––––––––––––––––––––––––––––––

DR Peak RMS Duration Track
––––––––––––––––––––––––––––––––––––––––
DR10 -0.18 dB -11.10 dB 3:03 01-Be Glad
DR10 -0.18 dB -11.87 dB 4:00 02-I Want
DR10 -0.18 dB -11.77 dB 4:41 03-**4 in the Morning**
DR10 -0.18 dB -12.02 dB 3:09 04-Unfinished Business
DR11 -0.18 dB -12.51 dB 4:02 05-How Many
DR10 -0.18 dB -11.59 dB 3:24 06-Leave Me Alone
DR11 -0.18 dB -12.24 dB 4:06 07-Why Don't You See Me
DR10 -0.18 dB -11.14 dB 3:05 08-Tallow Shuffle
DR12 -0.19 dB -15.51 dB 3:33 09-Please Stop Seeing That Girl
DR9 -0.18 dB -10.88 dB 4:19 10-I'm Your Girl
DR11 -0.53 dB -15.06 dB 3:59 11-See You Tomorrow
DR13 -0.19 dB -15.30 dB 2:33 12-Blues Singin' Alcoholic
DR11 -0.18 dB -12.24 dB 3:36 13-I Want Your Mother to Know / Rotten B.
DR10 -0.18 dB -12.45 dB 6:23 14-Suffer
DR12 -0.19 dB -14.84 dB 2:51 15-Blues Psalm
––––––––––––––––––––––––––––––––––––––––

Number of tracks: 15
Official DR value: DR11

Samplerate: 44100 Hz
Channels: 2
Bits per sample: 16
Bitrate: 910 kbps
Codec: FLAC
================================================================================

Cathy Jean - I Want (1998)

Cathy Jean - I Want (1998)