Subcategories

Cathy Jean - Marshall Road Apocalypse (2001)

Posted By: Designol
Cathy Jean - Marshall Road Apocalypse (2001)

Cathy Jean - Marshall Road Apocalypse (2001)
EAC | FLAC | Image (Cue&Log) ~443 Mb (incl 5%) | Mp3 (CBR320) ~ 155 Mb (incl 5%) | Scans ~ 88 Mb
Genre: Blues, Blues Rock | Label: Cathy Jean | # CJ9900 | Time: 01:04:13

If the big heels and the high-production fashion values have you skeptical about this lady, keep reading. Purring and snarling through “Your One And Only”, crowing danger through the tasty acoustic gem “Behind My Back”, double-daring her way through the buoyant “Purple Tattoos”, Cathy Jean has a natural gift for pairing her formidable voice with some pretty mean presence and solid song-writing (not a single cover on the entire CD). Blues fans will want to skip string-coated pop fare like “You Don’t Know”, but most of the rest is great stuff– seductive, tough and convincing, backed by a terrific group. Excellent and recommended.

Review by Dave Kirby, Blues Access Magazine

If it hadn't been for accidently stumbling across Cathy Jean's last cd called "I Want" in the used bins,I would have never heard of this wonderful artist. I don't know how a blues singer with this much talent continues to fly under the radar screen. This latest album was a big surprise for me. Not that her last album wasn't very good too. It's just that she's made such a big leap both in her songwriting and her singing abilities. Not to mention the hot band she has backing her here. Where her last album was mainly blues oriented, here she expands on the blues theme and explores other styles like jazz, pop, and rock. Even on her blues tunes she adds a little something extra to each that makes these songs different. On the first song she opens with probably the most basic blues tune on the cd with "Your One And Only". But then on the next track "Kauai" she uses a full orchestra backing to great effect on this catchy straight ahead pop song that would probably be playing on the radio today if it wasn't for the prefab Brittany's and Christina's out there. This song really took me by surprise, and I knew I might be in for something special after this. Jump on down to track 4 with "The Kids From Glen Burnie" and I got surprised again by this 50's style jazz tune complete with a cool piano and trumpet sound and spooky lyrics about the horrors that await you in a haunted house on Marshall Road, which is the street this album is named after, that Cathy Jean wants to have destroyed. Her voice and instrumentation jibe perfect on this tune. "Austria" is another good blues song with a little different slant. This time with a cello added that gives it a kind of Middle Eastern flavor, but with Cathy Jean singing nothin' but the blues. "Strut" is the only full horn song, and it has a kind of funk feel to it with the use of guitar wah wah pedal added. The rest of the music here is pretty much blues rock oriented material, but with that little something added to make each song stand out from the rest. Cathy Jean's voice is really something special. I'm surprised none of the other reviewers here didn't mention how much she sounds like Ann Wilson of the band Heart. There's times I can't tell their two voices apart. Other than that similarity, Cathy Jean really stands out from the crowd. She's an amazing songwriter. Everything here she wrote. And in every song she has an interesting story to tell. Don't be fooled by the provocative cover. She's a blues Diva to the bone, and you can tell she takes her music serious. There's only a couple women in the blues world who I put in the same class. And that's Joanna Connor, who in my opinion is the best woman blues guitar player we have today. And Deborah Coleman, who is another outstanding blues singer/songwriter. I highly recommend this cd. It's a heck of a lot of fun to listen to, and a hard one to put down. One of the very best blues albums from 2001.

Review by Patrick Earley, Amazon.com

Cathy Jean - Marshall Road Apocalypse (2001)


Tracklist:

01. Your One And Only (05:18)
02. Kauai (04:38)
03. Call It (Quits) (03:17)
04. The Kids From Glen Burnie (04:32)
05. Ms. Jeneration Hip Zone (04:10)
06. Dirty One (03:34)
07. Behind My Back (04:03)
08. It's On Me (03:58)
09. Austria (05:21)
10. Purple Tattoos (04:25)
11. Prophet (04:04)
12. You Don't Know (04:03)
13. Strut (04:18)
14. Get Me Out (03:21)
15. The Fabulous New Debbie Song (05:06)


Exact Audio Copy V1.1 from 23. June 2015

Отчёт EAC об извлечении, выполненном 3. июля 2016, 15:47

Cathy Jean / Marshall Road Apocalypse

Дисковод: SONY CD-RW CRX230ED Adapter: 1 ID: 0

Режим чтения : Достоверность
Использование точного потока : Да
Отключение кэша аудио : Да
Использование указателей C2 : Нет

Коррекция смещения при чтении : 6
Способность читать области Lead-in и Lead-out : Нет
Заполнение пропущенных сэмплов тишиной : Да
Удаление блоков с тишиной в начале и конце : Нет
При вычислениях CRC использовались нулевые сэмплы : Да
Интерфейс : Встроенный Win32-интерфейс для Win NT/2000

Выходной формат : Внутренние WAV-операции
Формат сэмплов : 44.100 Гц; 16 бит; стерео


TOC извлечённого CD

Трек | Старт | Длительность | Начальный сектор | Конечный сектор
––––––––––––––––––––––––––––––––––-
1 | 0:00.00 | 5:18.15 | 0 | 23864
2 | 5:18.15 | 4:38.12 | 23865 | 44726
3 | 9:56.27 | 3:17.08 | 44727 | 59509
4 | 13:13.35 | 4:32.40 | 59510 | 79949
5 | 17:46.00 | 4:10.35 | 79950 | 98734
6 | 21:56.35 | 3:34.15 | 98735 | 114799
7 | 25:30.50 | 4:03.40 | 114800 | 133064
8 | 29:34.15 | 3:58.20 | 133065 | 150934
9 | 33:32.35 | 5:21.52 | 150935 | 175061
10 | 38:54.12 | 4:25.13 | 175062 | 194949
11 | 43:19.25 | 4:04.27 | 194950 | 213276
12 | 47:23.52 | 4:03.08 | 213277 | 231509
13 | 51:26.60 | 4:18.37 | 231510 | 250896
14 | 55:45.22 | 3:21.58 | 250897 | 266029
15 | 59:07.05 | 5:06.30 | 266030 | 289009


Характеристики диапазона извлечения и сообщения об ошибках

Выбранный диапазон

Имя файла F:\MusicCD\Torrent\Cathy Jean - Marshall Road Apocalypse\Cathy Jean - Marshall Road Apocalypse.wav

Пиковый уровень 97.7 %
Скорость извлечения 7.8 X
Качество диапазона 100.0 %
CRC теста 040D5681
CRC копии 040D5681
Копирование… OK

Ошибок не произошло


AccurateRip: сводка

Трек 1 : извлечено точно (доверие 2) [796CAAAC] (AR v1)
Трек 2 : извлечено точно (доверие 1) [AE59BFA8] (AR v2)
Трек 3 : извлечено точно (доверие 2) [98F6E56D] (AR v1)
Трек 4 : извлечено точно (доверие 2) [32490D0D] (AR v1)
Трек 5 : извлечено точно (доверие 2) [D04451FF] (AR v1)
Трек 6 : извлечено точно (доверие 2) [F811C914] (AR v1)
Трек 7 : извлечено точно (доверие 2) [C6D7F534] (AR v1)
Трек 8 : извлечено точно (доверие 2) [F1283B60] (AR v1)
Трек 9 : извлечено точно (доверие 2) [71858581] (AR v1)
Трек 10 : извлечено точно (доверие 2) [3CEA028E] (AR v1)
Трек 11 : извлечено точно (доверие 2) [32B8DAA5] (AR v1)
Трек 12 : извлечено точно (доверие 2) [CD3CD7BE] (AR v1)
Трек 13 : извлечено точно (доверие 2) [1E13AB91] (AR v1)
Трек 14 : извлечено точно (доверие 2) [0C50FAE3] (AR v1)
Трек 15 : извлечено точно (доверие 2) [411F0E3E] (AR v1)

Все треки извлечены точно

Конец отчёта

–– CUETools DB Plugin V2.1.6

[CTDB TOCID: gbUxK1qmU0NScIzLCRyEZTDlj5s-] found
Submit result: gbUxK1qmU0NScIzLCRyEZTDlj5s- has been confirmed
Track | CTDB Status
1 | (3/3) Accurately ripped
2 | (3/3) Accurately ripped
3 | (3/3) Accurately ripped
4 | (3/3) Accurately ripped
5 | (3/3) Accurately ripped
6 | (3/3) Accurately ripped
7 | (3/3) Accurately ripped
8 | (3/3) Accurately ripped
9 | (3/3) Accurately ripped
10 | (3/3) Accurately ripped
11 | (3/3) Accurately ripped
12 | (3/3) Accurately ripped
13 | (3/3) Accurately ripped
14 | (3/3) Accurately ripped
15 | (3/3) Accurately ripped


==== Контрольная сумма отчёта 1593CF7DCC7B1F70B1E530F478AC8D84AFAC124F9CDC651147A9FB0D2446479D ====

foobar2000 1.2 / Dynamic Range Meter 1.1.1
log date: 2016-07-05 14:36:28

––––––––––––––––––––––––––––––––––––––––
Analyzed: Cathy Jean / Marshall Road Apocalypse
––––––––––––––––––––––––––––––––––––––––

DR Peak RMS Duration Track
––––––––––––––––––––––––––––––––––––––––
DR10 -0.20 dB -12.83 dB 5:18 01-Your One And Only
DR10 -0.20 dB -12.00 dB 4:38 02-Kauai
DR9 -0.20 dB -11.29 dB 3:17 03-Call It (Quits)
DR11 -0.20 dB -13.92 dB 4:33 04-The Kids From Glen Burnie
DR9 -0.20 dB -11.05 dB 4:10 05-Ms. Jeneration Hip Zone
DR9 -0.20 dB -10.68 dB 3:34 06-Dirty One
DR14 -0.20 dB -17.87 dB 4:04 07-Behind My Back
DR10 -0.20 dB -12.03 dB 3:58 08-It's On Me
DR11 -0.20 dB -12.64 dB 5:22 09-Austria
DR11 -0.20 dB -12.83 dB 4:25 10-Purple Tattoos
DR12 -0.20 dB -13.54 dB 4:04 11-Prophet
DR9 -0.20 dB -11.75 dB 4:03 12-You Don't Know
DR10 -0.20 dB -11.52 dB 4:18 13-Strut
DR10 -0.20 dB -11.52 dB 3:22 14-Get Me Out
DR9 -0.20 dB -11.32 dB 5:06 15-The Fabulous New Debbie Song
––––––––––––––––––––––––––––––––––––––––

Number of tracks: 15
Official DR value: DR10

Samplerate: 44100 Hz
Channels: 2
Bits per sample: 16
Bitrate: 918 kbps
Codec: FLAC
================================================================================

Cathy Jean - Marshall Road Apocalypse (2001)

Cathy Jean - Marshall Road Apocalypse (2001)