Subcategories

Cecilia Bartoli, Myung-Whun Chung - Chant d'amour: Melodies francaise: Bizet, Delibes, Viardot, Berlioz, Ravel (1996)

Posted By: ArlegZ
Cecilia Bartoli, Myung-Whun Chung - Chant d'amour: Melodies francaise: Bizet, Delibes, Viardot, Berlioz, Ravel (1996)

Cecilia Bartoli, Myung-Whun Chung - Chant d'amour: Mélodies française: Bizet, Delibes, Viardot, Berlioz, Ravel (1996)
EAC | FLAC | Image (Cue & Log) ~ 281 Mb | Total time: 67:33 | Scans included
Classical | Label: DECCA | # 452 667-2 | Recorded: 1996

This disc demonstrates that Cecilia Bartoli is as much at home in the world of the salon recital as she is in the swoops and vocal acrobatics of the Rossini coloratura repertoire. Her voice is in fine form here- -rich, resonant and full of surprising colours–but her talent for characterisation is even finer. In Pauline Viardot's "Havanaise" for example, she perfectly captures the flirtatious, almost desperate pleadings of a Spanish sailor for a French girl to accompany him on his boat –and then switches easily to the more capricious and teasing reply of the girl in French. In a number by Ravel (sung in Yiddish and Hebrew) she brings a rather elliptical exchange between a father and his young son to life with exquisite tenderness, and finds yet another voice out of her repertoire to characterise the little boy. Her accompanist, Myung-Whun Chung, supports her perfectly and knows exactly when to let the piano take over a phrase, and when to leave it. Fans will be delighted –others will be converted.
–Warwick Thompson

Performer:
Cecilia Bartoli, mezzo-soprano
Myung-Whun Chung, piano

Track List:
Georges Bizet (1838-1875)
01. Chant D'Amour
02. Ouvre Ton Coeur
03. Adieux De L'Hôtesse Arabe
04. Tarentelle
05. La Coccinelle
Léo Delibes (1836-1891)
06. Les Filles De Cadix
Pauline Viardot (1821-1910)
07. Hai Luli!
08. Havanaise
09. Les Filles De Cadix
Hector Berlioz (1803-1869)
10. La Mort D'Ophélie
11. Zaïde
Maurice Ravel (1875-1937)
Chants Populaires
12. I. Chanson Française
13. II. Chanson Espagnole
14. III. Chanson Italienne
15. IV. Chanson Hébraïque
16. Vocalise-étude (En Forme De Habanera)
Deux Mélodies Hébraïques
17. I. Kaddisch
18. II. L'Enigme Eternelle
19 Tripatos


Exact Audio Copy V1.3 from 2. September 2016

EAC extraction logfile from 26. January 2019, 18:33

Cecilia Bartoli, Myung-Whun Chung / Chant d'amour. Melodies francaises

Used drive : ATAPI iHAS124 F Adapter: 1 ID: 0

Read mode : Secure
Utilize accurate stream : Yes
Defeat audio cache : Yes
Make use of C2 pointers : No

Read offset correction : 6
Overread into Lead-In and Lead-Out : No
Fill up missing offset samples with silence : Yes
Delete leading and trailing silent blocks : No
Null samples used in CRC calculations : Yes
Used interface : Native Win32 interface for Win NT & 2000

Used output format : User Defined Encoder
Selected bitrate : 1024 kBit/s
Quality : High
Add ID3 tag : No
Command line compressor : C:\Program Files (x86)\Exact Audio Copy\FLAC\FLAC.EXE
Additional command line options : -6 -V -T "ARTIST=%artist%" -T "TITLE=%title%" -T "ALBUM=%albumtitle%" -T "DATE=%year%" -T "TRACKNUMBER=%tracknr%" -T "GENRE=%genre%" -T "COMMENT=%comment%" -T "BAND=%albuminterpret%" -T "ALBUMARTIST=%albuminterpret%" -T "COMPOSER=%composer%" %haslyrics%–tag-from-file=LYRICS="%lyricsfile%"%haslyrics% -T "DISCNUMBER=%cdnumber%" -T "TOTALDISCS=%totalcds%" -T "TOTALTRACKS=%numtracks%" %hascover%–picture="%coverfile%"%hascover% %source% -o %dest%


TOC of the extracted CD

Track | Start | Length | Start sector | End sector
––––––––––––––––––––––––––––-
1 | 0:00.32 | 3:10.63 | 32 | 14344
2 | 3:11.20 | 2:47.37 | 14345 | 26906
3 | 5:58.57 | 4:57.50 | 26907 | 49231
4 | 10:56.32 | 3:54.13 | 49232 | 66794
5 | 14:50.45 | 5:15.37 | 66795 | 90456
6 | 20:06.07 | 3:13.00 | 90457 | 104931
7 | 23:19.07 | 3:35.38 | 104932 | 121094
8 | 26:54.45 | 4:43.62 | 121095 | 142381
9 | 31:38.32 | 2:53.00 | 142382 | 155356
10 | 34:31.32 | 7:03.13 | 155357 | 187094
11 | 41:34.45 | 3:44.00 | 187095 | 203894
12 | 45:18.45 | 2:16.12 | 203895 | 214106
13 | 47:34.57 | 2:32.50 | 214107 | 225556
14 | 50:07.32 | 1:28.50 | 225557 | 232206
15 | 51:36.07 | 3:55.00 | 232207 | 249831
16 | 55:31.07 | 3:35.13 | 249832 | 265969
17 | 59:06.20 | 5:10.25 | 265970 | 289244
18 | 64:16.45 | 1:35.25 | 289245 | 296394
19 | 65:51.70 | 1:41.12 | 296395 | 303981


Range status and errors

Selected range

Filename C:\EACRip\CECILIA BARTOLI\1996 - Chant d'amour. Melodies francaises (Cecilia Bartoli, Myung-Whun Chung)\Chant d'amour. Melodies francaises - Cecilia Bartoli, Myung-Whun Chung.wav

Peak level 100.0 %
Extraction speed 9.4 X
Range quality 100.0 %
Test CRC B4AA36DE
Copy CRC B4AA36DE
Copy OK

No errors occurred


AccurateRip summary

Track 1 accurately ripped (confidence 33) [62B8E5FD] (AR v2)
Track 2 accurately ripped (confidence 33) [AA22AF80] (AR v2)
Track 3 accurately ripped (confidence 32) [B140F3D2] (AR v2)
Track 4 accurately ripped (confidence 33) [E98328C3] (AR v2)
Track 5 accurately ripped (confidence 32) [DFF26EA0] (AR v2)
Track 6 accurately ripped (confidence 33) [11401E64] (AR v2)
Track 7 accurately ripped (confidence 33) [5562FBEC] (AR v2)
Track 8 accurately ripped (confidence 33) [4A4FCAD8] (AR v2)
Track 9 accurately ripped (confidence 33) [7F179F13] (AR v2)
Track 10 accurately ripped (confidence 32) [B98C5CC9] (AR v2)
Track 11 accurately ripped (confidence 33) [9A15951E] (AR v2)
Track 12 accurately ripped (confidence 33) [2BD61447] (AR v2)
Track 13 accurately ripped (confidence 33) [C7D52FBC] (AR v2)
Track 14 accurately ripped (confidence 33) [EB541286] (AR v2)
Track 15 accurately ripped (confidence 33) [089BCB6D] (AR v2)
Track 16 accurately ripped (confidence 33) [105B63FD] (AR v2)
Track 17 accurately ripped (confidence 33) [CFB78533] (AR v2)
Track 18 accurately ripped (confidence 33) [A6E0458F] (AR v2)
Track 19 accurately ripped (confidence 33) [8A2F1E3B] (AR v2)

All tracks accurately ripped

End of status report

–– CUETools DB Plugin V2.1.6

[CTDB TOCID: 1mtN.VS8gRLW_Vx.hOHppYoVAag-] found
Submit result: 1mtN.VS8gRLW_Vx.hOHppYoVAag- has been confirmed
Track | CTDB Status
1 | (59/99) Accurately ripped
2 | (58/99) Accurately ripped
3 | (58/99) Accurately ripped
4 | (59/99) Accurately ripped
5 | (59/99) Accurately ripped
6 | (59/99) Accurately ripped
7 | (59/99) Accurately ripped
8 | (59/99) Accurately ripped
9 | (59/99) Accurately ripped
10 | (58/99) Accurately ripped
11 | (59/99) Accurately ripped
12 | (59/99) Accurately ripped
13 | (59/99) Accurately ripped
14 | (59/99) Accurately ripped
15 | (59/99) Accurately ripped
16 | (59/99) Accurately ripped
17 | (59/99) Accurately ripped
18 | (59/99) Accurately ripped
19 | (58/99) Accurately ripped


==== Log checksum DF7FAE1D5C72892C6CD7B5729B800D8EAE445F9767534E00AEA3BAD49E628E11 ====

Cecilia Bartoli, Myung-Whun Chung - Chant d'amour: Melodies francaise: Bizet, Delibes, Viardot, Berlioz, Ravel (1996)

Thanks to the original releaser