Subcategories

Cee Cee James - Blood Red Blues (2012)

Posted By: hill0
Cee Cee James - Blood Red Blues (2012)

Cee Cee James - Blood Red Blues (2012)
EAC Rip | FLAC (image & cue & log) | 366 MB | MP3 CBR 320 kbps | 128 MB | Scans (JPG 400 dpi) | 71 MB | 55:54
Genre: Blue Rock | Country: USA | Label: FWG RECORDS | MWE 7030

Cee Cee James continues to bring her trademark lyrical and vocal talents expressed in crossover stylings of deep contemporary roots/blues in 12 original songs that fans will eat alive. Blood Red Blues, produced by Legendary Grammy Winning Jim Gaines is Cee Cee's third and most exciting CD to date. Cee Cee jumps up several notches as Jim brings out the best pushing Cee Cee to hold nothing back as she rises and meets the challenge with ease.lood Red Blues continues the strong momentum generated from her last two releases, Low Down Where The Snakes Crawl and Seriously Raw. Both CD's generated stellar reviews in the U.S. and Europe, and held top chart positions at Cashbox, the Roots Report and at XM/Sirius BB King Bluesville.
Cee Cee James - Blood Red Blues (2012)



Tracklist :

01. Blood Red Blues 3:54
02. Let's All Get Loose 3:53
03. Feel My Love Come Down 4:30
04. Comfort Of A Good Heart 5:50
05. Thick Like Blood 4:00
06. I Got A Right To Sing The Blues 5:17
07. Worn Out Sins 4:59
08. Walk On 4:36
09. Wounds 4:17
10. Cover Me With Love 3:47
11. 100 Ways To Make Love 5:17
12. I'm Takin' Mine 5:30

Exact Audio Copy V1.0 beta 1 from 15. November 2010

EAC extraction logfile from 18. February 2014, 18:01

Cee Cee James / Blood Red Blues

Used drive : Optiarc DVD RW AD-7263S Adapter: 3 ID: 0

Read mode : Secure
Utilize accurate stream : Yes
Defeat audio cache : Yes
Make use of C2 pointers : No

Read offset correction : 48
Overread into Lead-In and Lead-Out : No
Fill up missing offset samples with silence : Yes
Delete leading and trailing silent blocks : No
Null samples used in CRC calculations : Yes
Used interface : Native Win32 interface for Win NT & 2000

Used output format : User Defined Encoder
Selected bitrate : 128 kBit/s
Quality : High
Add ID3 tag : Yes
Command line compressor : D:\Program Files\Exact Audio Copy\Flac\flac.exe
Additional command line options : -V -8 -T "Date=%year%" -T "Genre=%genre%" %source%


TOC of the extracted CD

Track | Start | Length | Start sector | End sector
––––––––––––––––––––––––––––-
1 | 0:00.00 | 3:54.39 | 0 | 17588
2 | 3:54.39 | 3:53.70 | 17589 | 35133
3 | 7:48.34 | 4:30.00 | 35134 | 55383
4 | 12:18.34 | 5:50.69 | 55384 | 81702
5 | 18:09.28 | 4:00.04 | 81703 | 99706
6 | 22:09.32 | 5:17.19 | 99707 | 123500
7 | 27:26.51 | 4:59.61 | 123501 | 145986
8 | 32:26.37 | 4:36.07 | 145987 | 166693
9 | 37:02.44 | 4:17.50 | 166694 | 186018
10 | 41:20.19 | 3:46.72 | 186019 | 203040
11 | 45:07.16 | 5:16.74 | 203041 | 226814
12 | 50:24.15 | 5:30.19 | 226815 | 251583


Range status and errors

Selected range

Filename D:\Documents and Settings\Admin\Мои документы\Моя музыка\Cee Cee James - Blood Red Blues.wav

Peak level 96.6 %
Extraction speed 0.4 X
Range quality 100.0 %
Test CRC FEC2E71E
Copy CRC FEC2E71E
Copy OK

No errors occurred


AccurateRip summary

Track 1 accurately ripped (confidence 3) [4ABDED5C]
Track 2 accurately ripped (confidence 3) [519B00D9]
Track 3 accurately ripped (confidence 3) [1D8E1944]
Track 4 accurately ripped (confidence 3) [86F731FA]
Track 5 accurately ripped (confidence 3) [C8477403]
Track 6 accurately ripped (confidence 3) [ED872B8D]
Track 7 accurately ripped (confidence 3) [3641A0DD]
Track 8 accurately ripped (confidence 3) [BB86C9C7]
Track 9 accurately ripped (confidence 3) [D3E199F0]
Track 10 accurately ripped (confidence 3) [91D83F2C]
Track 11 accurately ripped (confidence 3) [79BE1E78]
Track 12 accurately ripped (confidence 3) [0B6233D1]

All tracks accurately ripped

End of status report

==== Log checksum 428A84978CA136EA2BB96C0EF6CE4974674AF104B80A67A451477ADD5DB33F5D ====

[CUETools log; Date: 21.06.2016 15:06:06; Version: 2.1.5]
[CTDB TOCID: f2mjapxreQhW8jgEg1la_F7Szuw-] found.
Track | CTDB Status
1 | (3/3) Accurately ripped
2 | (3/3) Accurately ripped
3 | (3/3) Accurately ripped
4 | (3/3) Accurately ripped
5 | (3/3) Accurately ripped
6 | (3/3) Accurately ripped
7 | (3/3) Accurately ripped
8 | (3/3) Accurately ripped
9 | (3/3) Accurately ripped
10 | (3/3) Accurately ripped
11 | (3/3) Accurately ripped
12 | (3/3) Accurately ripped
[AccurateRip ID: 00184f46-00e4b110-960d1a0c] found.
Track [ CRC | V2 ] Status
01 [4abded5c|bdfb1a55] (0+6/6) Accurately ripped
02 [519b00d9|04efe49a] (0+6/6) Accurately ripped
03 [1d8e1944|f497ccd4] (0+6/6) Accurately ripped
04 [86f731fa|36c6b88b] (0+6/6) Accurately ripped
05 [c8477403|b9a970de] (0+6/6) Accurately ripped
06 [ed872b8d|8643691a] (0+6/6) Accurately ripped
07 [3641a0dd|3b436951] (0+6/6) Accurately ripped
08 [bb86c9c7|38e06988] (0+6/6) Accurately ripped
09 [d3e199f0|4476c283] (0+6/6) Accurately ripped
10 [91d83f2c|52a2d857] (0+6/6) Accurately ripped
11 [79be1e78|3c13e99c] (0+6/6) Accurately ripped
12 [0b6233d1|1c6a96a2] (0+6/6) Accurately ripped

Track Peak [ CRC32 ] [W/O NULL] [ LOG ]
– 96,6 [FEC2E71E] [83F35B38] CRC32
01 96,6 [99F14820] [B3330399]
02 96,6 [2F301CBE] [7D6888B8]
03 96,6 [483CFF58] [F5287D72]
04 96,6 [7CEB771A] [F6570B2C]
05 96,6 [EDCDB8FB] [E6B34CA4]
06 96,6 [2488CAF1] [2907369F]
07 96,6 [D6D04169] [724680C8]
08 96,6 [FF199A93] [8DCC513E]
09 96,6 [B736E95E] [FCFDF4CF]
10 96,6 [CEB86809] [99EB6951]
11 96,6 [63A363D2] [E4A44A47]
12 96,6 [4DC46480] [D8F78EEE]


Musicians

Bass – Dan Mohler
Drums – Chris Leighton
Keyboards – Susan Julian
Lead Guitar – Rocky Athas
Lead Vocals – Cee Cee James
Rhythm Guitar, Slide Guitar – Robert Andrews

Cee Cee James - Blood Red Blues (2012)


All thanks go to sergey57s
=====