Subcategories

Cee Lo Green – The Lady Killer (2010)

Posted By: ym3063
Cee Lo Green – The Lady Killer (2010)

Cee Lo Green – The Lady Killer (2010)
EAC Rip | FLAC + CUE + LOG + Covers (front + back) | 14 Tracks | 342 MB
R&B, Hip-Hop, Neo Soul | Label: Elektra/Asylum | Release Date: 2010


––––––
Tracklist
––––––
01. Lady Killer Theme [intro]
02. Bright Lights Bigger City
03. Forget You
04. Wildflower
05. Bodies
06. Please (feat. Selah Sue)
07. Satisfied
08. I Want You
09. Cry Baby
10. Fool For You (feat. Philip Bailey)
11. It's Ok
12. Old Fashioned
13. Lady Killer Theme [outro]
14. Fuck You
Exact Audio Copy V0.99 prebeta 5 from 4. May 2009
EAC extraction logfile from 5. November 2010, 20:20
Cee Lo Green / The Lady Killer
Used drive : PIONEER DVD-RW DVR-212 Adapter: 4 ID: 0
Read mode : Secure
Utilize accurate stream : Yes
Defeat audio cache : Yes
Make use of C2 pointers : No
Read offset correction : 48
Overread into Lead-In and Lead-Out : No
Fill up missing offset samples with silence : Yes
Delete leading and trailing silent blocks : No
Null samples used in CRC calculations : Yes
Used interface : Native Win32 interface for Win NT & 2000
Gap handling : Appended to previous track
Used output format : User Defined Encoder
Selected bitrate : 128 kBit/s
Quality : High
Add ID3 tag : No
Command line compressor : C:\Users\Ben\Documents\FLAC\bin\flac.exe
Additional command line options : -V -8 -T "artist=%a" -T "title=%t" -T "album=%g" -T "date=%y" -T "tracknumber=%n" -T "genre=%m" %s
TOC of the extracted CD
Track | Start | Length | Start sector | End sector
––––––––––––––––––––––––––––-
1 | 0:00.00 | 1:37.13 | 0 | 7287
2 | 1:37.13 | 3:38.21 | 7288 | 23658
3 | 5:15.34 | 3:42.55 | 23659 | 40363
4 | 8:58.14 | 4:03.38 | 40364 | 58626
5 | 13:01.52 | 3:44.35 | 58627 | 75461
6 | 16:46.12 | 5:01.02 | 75462 | 98038
7 | 21:47.14 | 3:24.55 | 98039 | 113393
8 | 25:11.69 | 3:36.02 | 113394 | 129595
9 | 28:47.71 | 3:27.66 | 129596 | 145186
10 | 32:15.62 | 3:40.48 | 145187 | 161734
11 | 35:56.35 | 3:46.25 | 161735 | 178709
12 | 39:42.60 | 3:25.00 | 178710 | 194084
13 | 43:07.60 | 0:59.71 | 194085 | 198580
14 | 44:07.56 | 3:42.40 | 198581 | 215270
Track 1
Filename D:\EAC\Cee Lo Green\2010 The Lady Killer\01 Lady Killer Theme (Intro).wav
Pre-gap length 0:00:02.00
Peak level 99.8 %
Track quality 100.0 %
Test CRC 5136AA4D
Copy CRC 5136AA4D
Track not present in AccurateRip database
Copy OK
Track 2
Filename D:\EAC\Cee Lo Green\2010 The Lady Killer\02 Bright Lights Bigger City.wav
Peak level 99.8 %
Track quality 100.0 %
Test CRC D3BCC995
Copy CRC D3BCC995
Track not present in AccurateRip database
Copy OK
Track 3
Filename D:\EAC\Cee Lo Green\2010 The Lady Killer\03 Forget You.wav
Peak level 100.0 %
Track quality 100.0 %
Test CRC 0EB8339D
Copy CRC 0EB8339D
Track not present in AccurateRip database
Copy OK
Track 4
Filename D:\EAC\Cee Lo Green\2010 The Lady Killer\04 Wildflower.wav
Peak level 99.8 %
Track quality 100.0 %
Test CRC BACEA097
Copy CRC BACEA097
Track not present in AccurateRip database
Copy OK
Track 5
Filename D:\EAC\Cee Lo Green\2010 The Lady Killer\05 Bodies.wav
Peak level 99.8 %
Track quality 99.9 %
Test CRC 628C99E0
Copy CRC 628C99E0
Track not present in AccurateRip database
Copy OK
Track 6
Filename D:\EAC\Cee Lo Green\2010 The Lady Killer\06 Please (Feat. Selah Sue).wav
Peak level 99.8 %
Track quality 100.0 %
Test CRC B90FC0C6
Copy CRC B90FC0C6
Track not present in AccurateRip database
Copy OK
Track 7
Filename D:\EAC\Cee Lo Green\2010 The Lady Killer\07 Satisfied.wav
Peak level 99.8 %
Track quality 100.0 %
Test CRC 14DC0095
Copy CRC 14DC0095
Track not present in AccurateRip database
Copy OK
Track 8
Filename D:\EAC\Cee Lo Green\2010 The Lady Killer\08 I Want You.wav
Peak level 100.0 %
Track quality 100.0 %
Test CRC 7FAE6D5E
Copy CRC 7FAE6D5E
Track not present in AccurateRip database
Copy OK
Track 9
Filename D:\EAC\Cee Lo Green\2010 The Lady Killer\09 Cry Baby.wav
Peak level 99.8 %
Track quality 99.9 %
Test CRC 03045647
Copy CRC 03045647
Track not present in AccurateRip database
Copy OK
Track 10
Filename D:\EAC\Cee Lo Green\2010 The Lady Killer\10 Fool For You (Feat. Philip Bailey).wav
Peak level 99.8 %
Track quality 100.0 %
Test CRC 5D03A428
Copy CRC 5D03A428
Track not present in AccurateRip database
Copy OK
Track 11
Filename D:\EAC\Cee Lo Green\2010 The Lady Killer\11 It's OK.wav
Peak level 99.8 %
Track quality 100.0 %
Test CRC 5B6B2931
Copy CRC 5B6B2931
Track not present in AccurateRip database
Copy OK
Track 12
Filename D:\EAC\Cee Lo Green\2010 The Lady Killer\12 Old Fashioned.wav
Peak level 99.8 %
Track quality 100.0 %
Test CRC 002E532A
Copy CRC 002E532A
Track not present in AccurateRip database
Copy OK
Track 13
Filename D:\EAC\Cee Lo Green\2010 The Lady Killer\13 Lady Killer Theme (Outro).wav
Peak level 99.8 %
Track quality 100.0 %
Test CRC EA3B3034
Copy CRC EA3B3034
Track not present in AccurateRip database
Copy OK
Track 14
Filename D:\EAC\Cee Lo Green\2010 The Lady Killer\14 Fuck You.wav
Pre-gap length 0:00:01.49
Peak level 100.0 %
Track quality 100.0 %
Test CRC 23C545BA
Copy CRC 23C545BA
Track not present in AccurateRip database
Copy OK
None of the tracks are present in the AccurateRip database
No errors occurred
End of status report