Subcategories

VA - All My Friends. Celebrating The Songs & Voice Of Gregg Allman (2014) [2CD + 2DVD]

Posted By: v3122
VA - All My Friends. Celebrating The Songs & Voice Of Gregg Allman (2014) [2CD + 2DVD]

VA - All My Friends. Celebrating The Songs & Voice Of Gregg Allman (2014)
EAC | Flac(Image) + Cue + Log & MP3 CBR 320Kbps
2CD | Blackbird, 0888072353404 | ~ 1064 or 361 Mb | Scans(jpg) -> 20 Mb
2xDVD5: BD=>DVD5 | NTSC 16:9 (720x480) VBR Auto Letterboxed
LPCM, 2 ch, 1536 Kbps / DTS, 6 ch, 755 Kbps -> 11.58 Gb
Blues, Blues Rock, Southern Rock

On January 10, 2014, a star-studded tribute concert to Gregg Allman directed by Don Was was held at the Fox Theatre in Atlanta. All My Friends showcases this show in double-CD/single-DVD and, in light of the subsequent announcement that the Allman Brothers Band would retire at the end of 2014 in the wake of the twin departures of Warren Haynes and Derek Trucks, it gains a certain sense of poignancy. Truthfully, it's hard not to envision this 26-song concert as the inaugural event in a year designed to showcase precisely how rich the legacy of the Allmans and Gregg in particular is. To that end, All My Friends is a rousing success. Perhaps Brantley Gilbert and Pat Monahan seem a little slight compared to all the other muscle on-stage, but both acquit themselves admirably and also indicate how the featured lineup encompasses all sides of the Allmans. Haynes and Trucks open up the show, then there's a stretch that showcases the group's blues and soul roots – Sam Moore and Keb' Mo' show up, then Taj Mahal and Dr. John show up later – and there's space made for Americana maverick John Hiatt, '70s peer Jackson Browne, jam band Widespread Panic, and country stars Trace Adkins, Vince Gill, Zac Brown, and Eric Church before the Allman Brothers Band ties things up with "Dreams" and "Whipping Post." Some shine more than others – Church delights with his sly, soulful singing, Hiatt sounds like a live wire, Moore doesn't sound like he's aged a day – but there are no weak spots and the overall effect of All My Friends is dazzling; it illustrates just how rich Gregg Allman's contribution to American music is and what we'll miss when he retires.

by Stephen Thomas Erlewine, allmusic
VA - All My Friends. Celebrating The Songs & Voice Of Gregg Allman (2014):

VA - All My Friends. Celebrating The Songs & Voice Of Gregg Allman (2014) [2CD + 2DVD]

Tracklist CD1:

01. Come And Go Blues (Warren Haynes) 06:49
02. End Of The Line (Warren Haynes and Derek Trucks) 05:47
03. Stand Back (Susan Tedeschi and Derek Trucks) 04:28
04. You Can't Lose What You Ain't Never Had (Devon Allman, Jimmy Hall and Robert Randolph) 06:16
05. Please Call Home (Sam Moore) 05:00
06. Just Another Rider (Keb Mo) 06:32
07. Before The Bullets Fly (Brantley Gilbert) 03:40
08. Let This Be A Lesson To Ya (Dr. John) 03:39
09. Queen Of Hearts (Pat Monahan) 05:22
10. One Way Out (John Hiatt) 04:59
11. Statesboro Blues (Taj Mahal and Gregg Allman) 04:41
12. Just Ain't Easy (Widespread Panic) 06:21
13. Wasted Words (Widespread Panic and Derek Trucks) 05:42
14. I'm No Angel (Trace Adkins) 03:53

Exact Audio Copy V1.0 beta 3 from 29. August 2011

EAC extraction logfile from 22. June 2014, 11:48

Gregg Allman / All My Friends (Disc One)

Used drive : Optiarc DVD+-RW AD-7717H Adapter: 0 ID: 0

Read mode : Secure
Utilize accurate stream : Yes
Defeat audio cache : Yes
Make use of C2 pointers : No

Read offset correction : 48
Overread into Lead-In and Lead-Out : No
Fill up missing offset samples with silence : Yes
Delete leading and trailing silent blocks : No
Null samples used in CRC calculations : Yes
Used interface : Installed external ASPI interface

Used output format : User Defined Encoder
Selected bitrate : 768 kBit/s
Quality : High
Add ID3 tag : No
Command line compressor : C:\Program Files (x86)\Exact Audio Copy\Flac\flac.exe
Additional command line options : -V -8 -T "Date=%year%" -T "Genre=%genre%" %source%


TOC of the extracted CD

Track | Start | Length | Start sector | End sector
––––––––––––––––––––––––––––-
1 | 0:00.00 | 6:49.39 | 0 | 30713
2 | 6:49.39 | 5:47.29 | 30714 | 56767
3 | 12:36.68 | 4:28.19 | 56768 | 76886
4 | 17:05.12 | 6:16.64 | 76887 | 105150
5 | 23:22.01 | 5:00.33 | 105151 | 127683
6 | 28:22.34 | 6:32.72 | 127684 | 157155
7 | 34:55.31 | 3:40.52 | 157156 | 173707
8 | 38:36.08 | 3:39.51 | 173708 | 190183
9 | 42:15.59 | 5:22.72 | 190184 | 214405
10 | 47:38.56 | 4:59.68 | 214406 | 236898
11 | 52:38.49 | 4:41.29 | 236899 | 258002
12 | 57:20.03 | 6:21.48 | 258003 | 286625
13 | 63:41.51 | 5:42.40 | 286626 | 312315
14 | 69:24.16 | 3:53.62 | 312316 | 329852


Range status and errors

Selected range

Filename C:\0\Sket4er\Gregg Allman - All My Friends 2014 [flac]\CD - 1\Gregg Allman - All My Friends (Disc One).wav

Peak level 100.0 %
Extraction speed 2.3 X
Range quality 100.0 %
Test CRC F975C825
Copy CRC F975C825
Copy OK

No errors occurred


AccurateRip summary

Track 1 cannot be verified as accurate (confidence 3) [22A75458], AccurateRip returned [F7C193FA] (AR v2)
Track 2 cannot be verified as accurate (confidence 3) [28E5BB10], AccurateRip returned [009A4F59] (AR v2)
Track 3 cannot be verified as accurate (confidence 3) [31E76C20], AccurateRip returned [C9FEE20D] (AR v2)
Track 4 cannot be verified as accurate (confidence 3) [EDF10819], AccurateRip returned [BBC92D97] (AR v2)
Track 5 cannot be verified as accurate (confidence 3) [7D21C055], AccurateRip returned [167B021B] (AR v2)
Track 6 cannot be verified as accurate (confidence 3) [BDA21998], AccurateRip returned [530F8398] (AR v2)
Track 7 cannot be verified as accurate (confidence 3) [C8298160], AccurateRip returned [CEF01570] (AR v2)
Track 8 cannot be verified as accurate (confidence 3) [C692791F], AccurateRip returned [A8D46BD7] (AR v2)
Track 9 cannot be verified as accurate (confidence 3) [119E54A2], AccurateRip returned [1DAFE70C] (AR v2)
Track 10 cannot be verified as accurate (confidence 3) [68EEABBC], AccurateRip returned [3209093F] (AR v2)
Track 11 cannot be verified as accurate (confidence 3) [1563D8E8], AccurateRip returned [609A5DCC] (AR v2)
Track 12 cannot be verified as accurate (confidence 3) [CD5BC12E], AccurateRip returned [9ED8AD9D] (AR v2)
Track 13 cannot be verified as accurate (confidence 3) [371427E7], AccurateRip returned [60375BA6] (AR v2)
Track 14 cannot be verified as accurate (confidence 3) [B4E8FF8F], AccurateRip returned [FF1CC888] (AR v2)

No tracks could be verified as accurate
You may have a different pressing from the one(s) in the database

End of status report

==== Log checksum 546DC0E12E0F44E47A706DEF86CA24E3235BE0FAA41944674089C6B6B72A50B2 ====


[CUETools log; Date: 24.06.2014 12:10:59; Version: 2.1.4]
[CTDB TOCID: DVj7qZe9yhrXSflAsgMm.Wkh_kQ-] found.
Track | CTDB Status
1 | (7/7) Accurately ripped
2 | (7/7) Accurately ripped
3 | (7/7) Accurately ripped
4 | (7/7) Accurately ripped
5 | (7/7) Accurately ripped
6 | (7/7) Accurately ripped
7 | (7/7) Accurately ripped
8 | (7/7) Accurately ripped
9 | (7/7) Accurately ripped
10 | (7/7) Accurately ripped
11 | (7/7) Accurately ripped
12 | (7/7) Accurately ripped
13 | (7/7) Accurately ripped
14 | (6/7) Accurately ripped
[AccurateRip ID: 002701c3-019ad75e-b4112e0e] found.
Track [ CRC | V2 ] Status
01 [047aec1b|22a75458] (0+0/5) No match
02 [46f1f932|28e5bb10] (0+0/5) No match
03 [67532a66|31e76c20] (0+0/5) No match
04 [c0cdcb5e|edf10819] (0+0/5) No match
05 [bdc5e91c|7d21c055] (0+0/5) No match
06 [aa6a7cf5|bda21998] (0+0/5) No match
07 [924f96b6|c8298160] (0+0/5) No match
08 [b39a421d|c692791f] (0+0/5) No match
09 [36cc0d6c|119e54a2] (0+0/5) No match
10 [0f443a8b|68eeabbc] (0+0/5) No match
11 [6800e3f6|1563d8e8] (0+0/5) No match
12 [a41db92e|cd5bc12e] (0+0/5) No match
13 [52c95a44|371427e7] (0+0/5) No match
14 [23eaca8d|b4e8ff8f] (0+0/5) No match
Offsetted by 6:
01 [dcd01110] (2/5) Accurately ripped
02 [1bf7a04d] (2/5) Accurately ripped
03 [013f3267] (2/5) Accurately ripped
04 [8cb6b52b] (2/5) Accurately ripped
05 [54f09a73] (2/5) Accurately ripped
06 [3dd61c59] (2/5) Accurately ripped
07 [9785e2cc] (2/5) Accurately ripped
08 [942eed7c] (2/5) Accurately ripped
09 [456b8109] (2/5) Accurately ripped
10 [d9cd3121] (2/5) Accurately ripped
11 [b56bcbc2] (2/5) Accurately ripped
12 [7291db56] (2/5) Accurately ripped
13 [7cbcb066] (2/5) Accurately ripped
14 [6ec21b76] (2/5) Accurately ripped

Track Peak [ CRC32 ] [W/O NULL] [ LOG ]
– 100,0 [F975C825] [B0E11091] CRC32
01 99,3 [A92F72BF] [DFFE7AA8]
02 99,5 [80C0A69D] [1A1C9FAC]
03 100,0 [E159DE5D] [119D4968]
04 99,9 [9A7837FD] [ADE62469]
05 99,3 [40976037] [54EE3C7D]
06 100,0 [CC1A9940] [0C144A37]
07 100,0 [8C819783] [E67E7507]
08 100,0 [04F20561] [66811662]
09 99,2 [14D21032] [2A6AF05D]
10 100,0 [FAD1C8AF] [EDA43494]
11 100,0 [C1939F4A] [08E57CFB]
12 99,4 [CF281504] [065BF489]
13 100,0 [B69A26BE] [1984F39F]
14 100,0 [10DCDACD] [2A4129EF]


VA - All My Friends. Celebrating The Songs & Voice Of Gregg Allman (2014) [2CD + 2DVD]

Tracklist CD2:

01. Trouble No More (Trace Adkins) 04:10
02. Multi-Colored Lady (Vince Gill) 05:21
03. All My Friends (Martina McBride) 04:53
04. Can You Fool (Pat Monahan and Martina McBride) 03:23
05. Ain't Wastin' Time No More (Eric Church) 04:21
06. Win, Lose Or Draw (Eric Church) 06:00
07. These Days (Jackson Browne and Gregg Allman) 04:55
08. Melissa (Jackson Browne and Gregg Allman) 05:21
09. Midnight Rider (Vince Gill, Zac Brown and Gregg Allman) 05:00
10. Dreams (The Allman Brothers Band) 10:54
11. Whipping Post (The Allman Brothers Band) 13:06
12. Will The Circle Be Unbroken (full cast) 08:58

Exact Audio Copy V1.0 beta 3 from 29. August 2011

EAC extraction logfile from 22. June 2014, 13:09

Gregg Allman / All My Friends (Disc Wwo)

Used drive : Optiarc DVD+-RW AD-7717H Adapter: 0 ID: 0

Read mode : Secure
Utilize accurate stream : Yes
Defeat audio cache : Yes
Make use of C2 pointers : No

Read offset correction : 48
Overread into Lead-In and Lead-Out : No
Fill up missing offset samples with silence : Yes
Delete leading and trailing silent blocks : No
Null samples used in CRC calculations : Yes
Used interface : Installed external ASPI interface

Used output format : User Defined Encoder
Selected bitrate : 768 kBit/s
Quality : High
Add ID3 tag : No
Command line compressor : C:\Program Files (x86)\Exact Audio Copy\Flac\flac.exe
Additional command line options : -V -8 -T "Date=%year%" -T "Genre=%genre%" %source%


TOC of the extracted CD

Track | Start | Length | Start sector | End sector
––––––––––––––––––––––––––––-
1 | 0:00.00 | 4:10.73 | 0 | 18822
2 | 4:10.73 | 5:21.57 | 18823 | 42954
3 | 9:32.55 | 4:53.55 | 42955 | 64984
4 | 14:26.35 | 3:23.69 | 64985 | 80278
5 | 17:50.29 | 4:21.33 | 80279 | 99886
6 | 22:11.62 | 6:00.29 | 99887 | 126915
7 | 28:12.16 | 4:55.20 | 126916 | 149060
8 | 33:07.36 | 5:21.48 | 149061 | 173183
9 | 38:29.09 | 5:00.72 | 173184 | 195755
10 | 43:30.06 | 10:54.67 | 195756 | 244872
11 | 54:24.73 | 13:06.12 | 244873 | 303834
12 | 67:31.10 | 8:58.57 | 303835 | 344241


Range status and errors

Selected range

Filename C:\0\Sket4er\Gregg Allman - All My Friends 2014 [flac]\CD - 2\Gregg Allman - All My Friends (Disc Wwo).wav

Peak level 100.0 %
Extraction speed 2.3 X
Range quality 99.9 %
Test CRC A0E983BC
Copy CRC A0E983BC
Copy OK

No errors occurred


AccurateRip summary

Track 1 cannot be verified as accurate (confidence 3) [DA4611F7], AccurateRip returned [A7CC2AC4] (AR v2)
Track 2 cannot be verified as accurate (confidence 3) [E40F773F], AccurateRip returned [5B790E34] (AR v2)
Track 3 cannot be verified as accurate (confidence 3) [C5316D09], AccurateRip returned [350EF0E7] (AR v2)
Track 4 cannot be verified as accurate (confidence 3) [FD36178B], AccurateRip returned [9A0F6B75] (AR v2)
Track 5 cannot be verified as accurate (confidence 3) [A02523DA], AccurateRip returned [A2AC450F] (AR v2)
Track 6 cannot be verified as accurate (confidence 3) [19330719], AccurateRip returned [4DCEFF54] (AR v2)
Track 7 cannot be verified as accurate (confidence 3) [5D9F3D52], AccurateRip returned [42B3F856] (AR v2)
Track 8 cannot be verified as accurate (confidence 3) [EBF469AF], AccurateRip returned [4AED1E4B] (AR v2)
Track 9 cannot be verified as accurate (confidence 3) [C7CAA682], AccurateRip returned [D53E2558] (AR v2)
Track 10 cannot be verified as accurate (confidence 3) [F7F2BD87], AccurateRip returned [5E345749] (AR v2)
Track 11 cannot be verified as accurate (confidence 3) [1D4E0B2B], AccurateRip returned [DBC0A4A6] (AR v2)
Track 12 cannot be verified as accurate (confidence 3) [6535B1ED], AccurateRip returned [F719D653] (AR v2)

No tracks could be verified as accurate
You may have a different pressing from the one(s) in the database

End of status report

==== Log checksum B2B2B909E2D7467C29D05172615332A357954834AC2476BFECE6789C2DE166E4 ====


[CUETools log; Date: 24.06.2014 12:12:51; Version: 2.1.4]
[CTDB TOCID: xx1lBxKN6.tkL4Zkl3XXkTeIQnk-] found.
Track | CTDB Status
1 | (7/7) Accurately ripped
2 | (7/7) Accurately ripped
3 | (7/7) Accurately ripped
4 | (7/7) Accurately ripped
5 | (7/7) Accurately ripped
6 | (7/7) Accurately ripped
7 | (7/7) Accurately ripped
8 | (7/7) Accurately ripped
9 | (7/7) Accurately ripped
10 | (7/7) Accurately ripped
11 | (7/7) Accurately ripped
12 | (7/7) Accurately ripped
[AccurateRip ID: 001c263c-011033ce-a311ed0c] found.
Track [ CRC | V2 ] Status
01 [8fad0be7|da4611f7] (0+0/3) No match
02 [e8129e2f|e40f773f] (0+0/3) No match
03 [2ee766c6|c5316d09] (0+0/3) No match
04 [a95f3a68|fd36178b] (0+0/3) No match
05 [3bac6837|a02523da] (0+0/3) No match
06 [89eefb7b|19330719] (0+0/3) No match
07 [15be6ff3|5d9f3d52] (0+0/3) No match
08 [b4ab7844|ebf469af] (0+0/3) No match
09 [f3301abc|c7caa682] (0+0/3) No match
10 [bd6907a3|f7f2bd87] (0+0/3) No match
11 [ca43e2e3|1d4e0b2b] (0+0/3) No match
12 [0ace2cd0|6535b1ed] (0+0/3) No match
Offsetted by 6:
01 [5f25cbc1] (0/3) No match (V2 was not tested)
02 [61f1e8cb] (0/3) No match (V2 was not tested)
03 [a10c0787] (0/3) No match (V2 was not tested)
04 [44bc895f] (0/3) No match (V2 was not tested)
05 [3c7aac40] (0/3) No match (V2 was not tested)
06 [bbef82d1] (0/3) No match (V2 was not tested)
07 [fd13a530] (0/3) No match (V2 was not tested)
08 [1131cdc6] (0/3) No match (V2 was not tested)
09 [fee35cb5] (0/3) No match (V2 was not tested)
10 [2840954c] (0/3) No match (V2 was not tested)
11 [8508de97] (0/3) No match (V2 was not tested)
12 [9e1aa52e] (0/3) No match (V2 was not tested)

Track Peak [ CRC32 ] [W/O NULL] [ LOG ]
– 100,0 [A0E983BC] [38D9EEE7] CRC32
01 99,1 [0D7049CC] [2CC3A70D]
02 99,0 [A5B06143] [17E3AEBD]
03 99,2 [F6AF26DF] [267689EA]
04 99,3 [A463A516] [E8E3DD11]
05 100,0 [47C036E8] [E92FE203]
06 99,6 [BDA33133] [85F83AED]
07 99,1 [B64C0FA6] [23146FCD]
08 99,2 [216BE4BD] [EE55871C]
09 99,3 [33BCBBB2] [06BFBEC2]
10 100,0 [8856C4F8] [01DEF503]
11 99,3 [8E0C5F7D] [8EBE7E5B]
12 100,0 [9D42AD68] [A412A9EB]


VA - All My Friends. Celebrating The Songs & Voice Of Gregg Allman (2014) [2CD + 2DVD]

Tracklist DVD1:

1. Come and Go Blues – Warren Haynes
2. End of the Line – Warren Haynes and Derek Trucks
3. Stand Back – Susan Tedeschi and Derek Trucks
4. You Can’t Lose What You Ain’t Never Had – Devon Allman, Jimmy Hall and Robert Randolph
5. Please Call Home – Sam Moore
6. Just Another Rider – Keb’ Mo’
7. Before the Bullets Fly – Brantley Gilbert
8. Let This Be a Lesson to Ya – Dr. John
9. Queen of Hearts – Pat Monahan
10. One Way Out – John Hiatt
11. Statesboro Blues – Taj Mahal and Gregg Allman

Title: All My Friends - DVD1
Size: 4.26 Gb ( 4 469 386,00 KBytes ) - DVD-5
Enabled regions: 1, 2, 3, 4, 5, 6, 7, 8

VTS_01 :
Play Length: 01:03:17
Video: NTSC 16:9 (720x480) VBR, Auto Letterboxed
Audio:
English (LinearPCM, 2 ch)
English (DTS, 6 ch)


Tracklist DVD2:

12. Just Ain’t Easy – Widespread Panic
13. Wasted Words – Widespread Panic and Derek Trucks
14. I’m No Angel – Trace Adkins
15. Trouble No More – Trace Adkins
16. Multi-Colored Lady – Vince Gill
17. All My Friends – Martina McBride
18. Can You Fool – Pat Monahan and Martina McBride
19. Ain’t Wastin’ Time No More – Eric Church
20. Win, Lose or Draw – Eric Church
21. These Days – Jackson Browne and Gregg Allman
22. Melissa – Jackson Browne and Gregg Allman
23. Midnight Rider – Vince Gill, Zac Brown and Gregg Allman
24. Dreams – The Allman Brothers Band
25. Whipping Post – The Allman Brothers Band
26. Will the Circle Be Unbroken – full cast

Title: All My Friends - DVD2
Size: 6.53 Gb ( 6 844 336,00 KBytes ) - DVD-9
Enabled regions: 1, 2, 3, 4, 5, 6, 7, 8

VTS_01 :
Play Length: 01:37:29
Video: NTSC 16:9 (720x480) VBR, Auto Letterboxed
Audio:
English (LinearPCM, 2 ch)
English (DTS, 6 ch)


VA - All My Friends. Celebrating The Songs & Voice Of Gregg Allman (2014) [2CD + 2DVD]

VA - All My Friends. Celebrating The Songs & Voice Of Gregg Allman (2014) [2CD + 2DVD]

VA - All My Friends. Celebrating The Songs & Voice Of Gregg Allman (2014) [2CD + 2DVD]

VA - All My Friends. Celebrating The Songs & Voice Of Gregg Allman (2014) [2CD + 2DVD]

VA - All My Friends. Celebrating The Songs & Voice Of Gregg Allman (2014) [2CD + 2DVD]

VA - All My Friends. Celebrating The Songs & Voice Of Gregg Allman (2014) [2CD + 2DVD]

All thanks go to Sket4er & CHKA1961

Gregg Allman or Gregg Allman in my Blog

Download VA - All My Friends. Celebrating The Songs & Voice Of Gregg Allman (2014):