Subcategories

Celia Cruz - Regalo Del Alma (2003) {Sony}

Posted By: tiburon
Celia Cruz - Regalo Del Alma (2003) {Sony}

Celia Cruz - Regalo Del Alma (2003) {Sony}
EAC 1.0b4 | FLAC tracks level 5 | Cue+Log+M3U | Full Scans 600dpi | 451MB + 5% Recovery
MP3 CBR 320 Kbps | 221MB + 5% Recovery
Genre: Latin Jazz, Salsa, Latin Pop
Celia Cruz - Regalo Del Alma (2003) {Sony}

The final recording of the mighty Queen of Salsa's career, Regalo del Alma was certainly in keeping with the exuberant, joyful tone that her enormous fan base has come to expect from her. With stylistic influences and production value a bit more modern than one might expect from a legend whose recording career has spanned 45 years, this album will hook yet another generation on Celia Cruz's regal, earthy presence. Cruz is joined by a cast of consummate professionals including producer Sergio George, percussionists Marc Quiñones and Luis Quintero, and many of the usual suspects that one might expect to find on a record of this caliber. These contemporary masters bring a freshness to the project that is invigorating. There are several loop-driven tracks like "Ella Tiene Fuego" and "La Nina de la Trenza Negra" that propel Cruz and her loyal fan base into the 21st century. There are times when this production masks the subtle richness of Celia's vocal performance. For this reason, there could be some Cruz purists who are turned off by the new approach. The final track on the album is a creative rendition of the disco classic "I Will Survive." Like a declaration from beyond, chilling lyrics and a gorgeous arrangement hit their mark with force. "In the soul of my people, in the skin of the drums, in the hands of the conga player, in the feet of the dancer, I will live on."
Track List
01. Ella Tiene Fuego (04:07)
02. José Caridad (03:59)
03. Rie y Llora (04:10)
04. Ay Pena, Penita (04:58)
05. Díagnostico (04:28)
06. La Niña de la Trenza Negra (04:10)
07. Me Huele a Rumba (Rumba Na Ma) (04:03)
08. No Estés Amargao (04:03)
09. Pa' la Cola (04:04)
10. María la Loca (04:01)
11. Yo Vívíré (I Will Survíve) (04:31)

Produced by Sergio George and Oscar Gomez


Exact Audio Copy V1.0 beta 4 from 7. December 2014

EAC extraction logfile from 26. November 2017, 1:43

Celia Cruz / Regalo Del Alma

Used drive : TSSTcorpCDDVDW SH-224DB Adapter: 1 ID: 0

Read mode : Secure
Utilize accurate stream : Yes
Defeat audio cache : Yes
Make use of C2 pointers : No

Read offset correction : 6
Overread into Lead-In and Lead-Out : No
Fill up missing offset samples with silence : Yes
Delete leading and trailing silent blocks : No
Null samples used in CRC calculations : Yes
Used interface : Native Win32 interface for Win NT & 2000
Gap handling : Appended to previous track

Used output format : User Defined Encoder
Selected bitrate : 896 kBit/s
Quality : High
Add ID3 tag : No
Command line compressor : C:\Program Files\Exact Audio Copy\Flac\flac.exe
Additional command line options : -5 -V -T "ARTIST=%artist%" -T "TITLE=%title%" -T "ALBUM=%albumtitle%" -T "DATE=%year%" -T "TRACKNUMBER=%tracknr%" -T "GENRE=%genre%" -T "COMMENT=%comment%" %source% -o %dest%


TOC of the extracted CD

Track | Start | Length | Start sector | End sector
––––––––––––––––––––––––––––-
1 | 0:00.00 | 4:07.35 | 0 | 18559
2 | 4:07.35 | 3:59.32 | 18560 | 36516
3 | 8:06.67 | 4:10.28 | 36517 | 55294
4 | 12:17.20 | 4:58.35 | 55295 | 77679
5 | 17:15.55 | 4:28.07 | 77680 | 97786
6 | 21:43.62 | 4:10.40 | 97787 | 116576
7 | 25:54.27 | 4:04.00 | 116577 | 134876
8 | 29:58.27 | 4:03.18 | 134877 | 153119
9 | 34:01.45 | 4:04.05 | 153120 | 171424
10 | 38:05.50 | 4:01.47 | 171425 | 189546
11 | 42:07.22 | 4:31.33 | 189547 | 209904


Track 1

Filename C:\New Folder\01 - Ella Tiene Fuego.wav

Pre-gap length 0:00:02.00

Peak level 99.8 %
Extraction speed 1.7 X
Track quality 100.0 %
Test CRC 727A059F
Copy CRC 727A059F
Accurately ripped (confidence 2) [CD4170B7] (AR v1)
Copy OK

Track 2

Filename C:\New Folder\02 - Jose Caridad.wav

Peak level 99.8 %
Extraction speed 1.9 X
Track quality 100.0 %
Test CRC 9EE4C250
Copy CRC 9EE4C250
Accurately ripped (confidence 2) [831AE477] (AR v1)
Copy OK

Track 3

Filename C:\New Folder\03 - Rie Y Llora.wav

Peak level 99.8 %
Extraction speed 2.1 X
Track quality 100.0 %
Test CRC DB8CDAEC
Copy CRC DB8CDAEC
Accurately ripped (confidence 2) [5911EECC] (AR v1)
Copy OK

Track 4

Filename C:\New Folder\04 - Ay, Pena, Penita.wav

Peak level 99.8 %
Extraction speed 2.0 X
Track quality 99.9 %
Test CRC 64BDE3E8
Copy CRC 64BDE3E8
Accurately ripped (confidence 2) [2E5B50C3] (AR v1)
Copy OK

Track 5

Filename C:\New Folder\05 - Diagnostico.wav

Peak level 99.8 %
Extraction speed 2.4 X
Track quality 100.0 %
Test CRC 92B7EF0D
Copy CRC 92B7EF0D
Accurately ripped (confidence 2) [00B0975D] (AR v1)
Copy OK

Track 6

Filename C:\New Folder\06 - La Nina De La Trenza Negra.wav

Peak level 99.8 %
Extraction speed 2.6 X
Track quality 100.0 %
Test CRC BC3706A2
Copy CRC BC3706A2
Accurately ripped (confidence 2) [8FA1DCF9] (AR v1)
Copy OK

Track 7

Filename C:\New Folder\07 - Me Huele A Rumba.wav

Peak level 99.8 %
Extraction speed 2.2 X
Track quality 99.9 %
Test CRC 0AC8EA0D
Copy CRC 0AC8EA0D
Accurately ripped (confidence 2) [C2B6C118] (AR v1)
Copy OK

Track 8

Filename C:\New Folder\08 - No Estes Amargao.wav

Peak level 99.8 %
Extraction speed 2.8 X
Track quality 100.0 %
Test CRC 3BA2E2F4
Copy CRC 3BA2E2F4
Accurately ripped (confidence 2) [C1F1E643] (AR v1)
Copy OK

Track 9

Filename C:\New Folder\09 - Pa' La Cola.wav

Peak level 99.8 %
Extraction speed 2.9 X
Track quality 100.0 %
Test CRC 8F71A30C
Copy CRC 8F71A30C
Accurately ripped (confidence 2) [FB62E3B0] (AR v1)
Copy OK

Track 10

Filename C:\New Folder\10 - Maria La Loca.wav

Peak level 99.8 %
Extraction speed 3.0 X
Track quality 100.0 %
Test CRC 20687F12
Copy CRC 20687F12
Accurately ripped (confidence 2) [FE7601FC] (AR v1)
Copy OK

Track 11

Filename C:\New Folder\11 - Yo Vivire.wav

Peak level 98.9 %
Extraction speed 3.2 X
Track quality 100.0 %
Test CRC 475D2F73
Copy CRC 475D2F73
Accurately ripped (confidence 2) [434CF006] (AR v1)
Copy OK


All tracks accurately ripped

No errors occurred

End of status report

–– CUETools DB Plugin V2.1.4

[CTDB TOCID: _0i6iGxrO63TuAUAfXs6cve17vg-] found
Submit result: _0i6iGxrO63TuAUAfXs6cve17vg- has been confirmed
Track | CTDB Status
1 | ( 5/17) Accurately ripped, or (11/17) differs in 449 samples @00:00:16-00:00:17
2 | (16/17) Accurately ripped
3 | (16/17) Accurately ripped
4 | (16/17) Accurately ripped
5 | (16/17) Accurately ripped
6 | (16/17) Accurately ripped
7 | (16/17) Accurately ripped
8 | (16/17) Accurately ripped
9 | (16/17) Accurately ripped
10 | ( 5/17) Accurately ripped, or (11/17) differs in 1174 samples @03:56:70-03:59:42
11 | ( 5/17) Accurately ripped, or (11/17) differs in 7126 samples @00:00:05-00:00:06,04:28:73-04:31:08
If you are sure that your rip contains errors, you can use CUETools to repair it.


==== Log checksum 52D1D9F2A3B4F5DD909BD0D2F3033FEF8669095C17026C195EAEC9203726598F ====


foobar2000 1.3.13 / Dynamic Range Meter 1.1.1
log date: 2017-12-12 14:27:04

––––––––––––––––––––––––––––––––––––––––
Analyzed: Celia Cruz / Regalo Del Alma
––––––––––––––––––––––––––––––––––––––––

DR Peak RMS Duration Track
––––––––––––––––––––––––––––––––––––––––
DR7 -0.01 dB -7.64 dB 4:07 01-Ella Tiene Fuego
DR7 -0.01 dB -7.92 dB 3:59 02-Jose Caridad
DR7 -0.01 dB -7.93 dB 4:10 03-Rie Y Llora
DR7 -0.01 dB -8.42 dB 4:58 04-Ay, Pena, Penita
DR8 -0.01 dB -8.95 dB 4:28 05-Diagnostico
DR7 -0.01 dB -8.54 dB 4:11 06-La Nina De La Trenza Negra
DR8 -0.01 dB -9.07 dB 4:04 07-Me Huele A Rumba
DR7 -0.01 dB -7.85 dB 4:03 08-No Estes Amargao
DR6 -0.01 dB -7.46 dB 4:04 09-Pa' La Cola
DR7 -0.01 dB -8.87 dB 4:02 10-Maria La Loca
DR6 -0.09 dB -7.77 dB 4:31 11-Yo Vivire
––––––––––––––––––––––––––––––––––––––––

Number of tracks: 11
Official DR value: DR7

Samplerate: 44100 Hz
Channels: 2
Bits per sample: 16
Bitrate: 997 kbps
Codec: FLAC
================================================================================

Celia Cruz - Regalo Del Alma (2003) {Sony}
Celia Cruz - Regalo Del Alma (2003) {Sony}


Thanks to the original ripper