Celtica Pipes Rock! - Legends And Visions (2014)

Posted By: popsakov
Celtica Pipes Rock! - Legends And Visions (2014)

Celtica Pipes Rock! - Legends And Visions (2014)
EAC Rip | FLAC (Img) + Cue + Log ~ 420 Mb | MP3 CBR320 ~ 129 Mb
Scans (JPG, 300 dpi) ~ 22 Mb | RAR 5% Recovery
Celtic, Folk Rock, Hard Rock | Stringdependent Records #888295075497

With their unique sound of blazing bagpipes, mighty drums and the power of a rock band, Celtica Pipes Rock is one of the most popular bands playing Celtic music in Germany. 'Legends and Visions' combines the traditional sound of the bagpipes with rock music as the band plays a set of their own compositions. Three cover songs complete the album: a U2 medley, a heavy rocking version of "Whiskey in the Jar" and a live version of "Don't Stop Believing", recorded during a USA tour.
Celtica Pipes Rock! - Legends And Visions (2014)

Celtica Pipes Rock! - Legends And Visions (2014)


***************

Celtica Pipes Rock! - Legends And Visions (2014)

Track List:

01. Legends And Visions [0:36]
02. Starship Celtica [2:53]
03. Alba's Shore [3:24]
04. Whiskey In The Jar [2:58]
05. The Druid's Prophecy [3:48]
06. Celtic Dragon [4:33]
07. Love U2! [5:35]
08. Visitors I: Out There [4:27]
09. Visitors II: Contact [0:51]
10. Rolling With The Goblins [3:32]
11. The Princess And The Piper [3:39]
12. Excalibur [3:38]
13. Beyond Avalon [3:44]
14. The King's Tournament [2:46]
15. One More! [2:57]
16. Don't Stop Believin' [4:03]

Personnel:

Duncan Knight - Great Highland Bagpipe, Whistle, Vocals
Gajus Stappen - Guitars, Percussion, Vocals
Harald Weinkum - Bass, Keyboards, Percussion, Vocals
Krystal Porter - Vocals, Keyboards, Percussion, Fire Juggling
Matthias Katzmair - Drums

Guest Musicians:
Stewart Cook, Rachel Walker, Kev Gillies, Pamela and Perry Stephens: Vocals

Exact Audio Copy V1.1 from 23. June 2015

EAC extraction logfile from 17. November 2016, 23:22

Celtica / Legends And Visions

Used drive : PIONEER BD-RW BDR-209D Adapter: 0 ID: 5

Read mode : Secure
Utilize accurate stream : Yes
Defeat audio cache : Yes
Make use of C2 pointers : No

Read offset correction : 667
Overread into Lead-In and Lead-Out : No
Fill up missing offset samples with silence : Yes
Delete leading and trailing silent blocks : No
Null samples used in CRC calculations : Yes
Used interface : Installed external ASPI interface

Used output format : User Defined Encoder
Selected bitrate : 768 kBit/s
Quality : High
Add ID3 tag : No
Command line compressor : C:\Program Files (x86)\Exact Audio Copy\FLAC\FLAC.EXE
Additional command line options : -6 -V -T "ARTIST=%artist%" -T "TITLE=%title%" -T "ALBUM=%albumtitle%" -T "DATE=%year%" -T "TRACKNUMBER=%tracknr%" -T "GENRE=%genre%" -T "COMMENT=%comment%" -T "BAND=%albuminterpret%" -T "ALBUMARTIST=%albuminterpret%" -T "COMPOSER=%composer%" %haslyrics%–tag-from-file=LYRICS="%lyricsfile%"%haslyrics% -T "DISCNUMBER=%cdnumber%" -T "TOTALDISCS=%totalcds%" -T "TOTALTRACKS=%numtracks%" %hascover%–picture="%coverfile%"%hascover% %source% -o %dest%


TOC of the extracted CD

Track | Start | Length | Start sector | End sector
––––––––––––––––––––––––––––-
1 | 0:00.00 | 0:35.56 | 0 | 2680
2 | 0:35.56 | 2:53.16 | 2681 | 15671
3 | 3:28.72 | 3:24.07 | 15672 | 30978
4 | 6:53.04 | 2:58.29 | 30979 | 44357
5 | 9:51.33 | 3:48.26 | 44358 | 61483
6 | 13:39.59 | 4:33.22 | 61484 | 81980
7 | 18:13.06 | 5:35.01 | 81981 | 107106
8 | 23:48.07 | 4:26.45 | 107107 | 127101
9 | 28:14.52 | 0:51.12 | 127102 | 130938
10 | 29:05.64 | 3:32.11 | 130939 | 146849
11 | 32:38.00 | 3:39.07 | 146850 | 163281
12 | 36:17.07 | 3:38.20 | 163282 | 179651
13 | 39:55.27 | 3:44.08 | 179652 | 196459
14 | 43:39.35 | 2:46.25 | 196460 | 208934
15 | 46:25.60 | 2:57.14 | 208935 | 222223
16 | 49:22.74 | 4:03.03 | 222224 | 240451


Range status and errors

Selected range

Filename E:\MUSIC\Celtica - Legends And Visions.wav

Peak level 98.6 %
Extraction speed 7.6 X
Range quality 100.0 %
Test CRC FC4F9449
Copy CRC FC4F9449
Copy OK

No errors occurred


AccurateRip summary

Track 1 accurately ripped (confidence 7) [12A2A85D] (AR v2)
Track 2 accurately ripped (confidence 7) [31E5C269] (AR v2)
Track 3 accurately ripped (confidence 7) [8B70E859] (AR v2)
Track 4 accurately ripped (confidence 7) [4300193F] (AR v2)
Track 5 accurately ripped (confidence 7) [C405EE79] (AR v2)
Track 6 accurately ripped (confidence 7) [18E5EB82] (AR v2)
Track 7 accurately ripped (confidence 7) [3D7E7265] (AR v2)
Track 8 accurately ripped (confidence 7) [5EF771A1] (AR v2)
Track 9 accurately ripped (confidence 7) [DA9E9859] (AR v2)
Track 10 accurately ripped (confidence 7) [134841D9] (AR v2)
Track 11 accurately ripped (confidence 7) [74C07863] (AR v2)
Track 12 accurately ripped (confidence 7) [9FB8F1F9] (AR v2)
Track 13 accurately ripped (confidence 7) [8F2E48FB] (AR v2)
Track 14 accurately ripped (confidence 7) [3BD94B5C] (AR v2)
Track 15 accurately ripped (confidence 7) [AB17BF06] (AR v2)
Track 16 accurately ripped (confidence 7) [BDFDCE7A] (AR v2)

All tracks accurately ripped

End of status report

==== Log checksum 015AC5CE0A5441CB97E41953E33F73BDCD674B46090DD7EBEA5D7CCB716FC479 ====

foobar2000 1.2.6 / Dynamic Range Meter 1.1.1
log date: 2016-11-27 21:47:44

––––––––––––––––––––––––––––––––––––––––
Analyzed: Celtica / Legends And Visions
––––––––––––––––––––––––––––––––––––––––

DR Peak RMS Duration Track
––––––––––––––––––––––––––––––––––––––––
DR6 -0.67 dB -13.28 dB 0:36 01-Legends And Visions
DR6 -0.12 dB -7.02 dB 2:53 02-Starship Celtica
DR6 -0.12 dB -6.71 dB 3:24 03-Alba's Shore
DR6 -0.12 dB -6.85 dB 2:58 04-Whiskey In The Jar
DR6 -0.12 dB -7.77 dB 3:48 05-The Druid's Prophecy
DR7 -0.12 dB -8.40 dB 4:33 06-Celtic Dragon
DR6 -0.12 dB -7.29 dB 5:35 07-Love U2!
DR6 -0.12 dB -6.94 dB 4:27 08-Visitors I: Out There
DR9 -0.54 dB -10.94 dB 0:51 09-Visitors II: Contact
DR7 -0.12 dB -7.58 dB 3:32 10-Rolling With The Goblins
DR6 -0.12 dB -7.68 dB 3:39 11-The Princess And The Piper
DR6 -0.12 dB -8.40 dB 3:38 12-Excalibur
DR6 -0.12 dB -7.12 dB 3:44 13-Beyond Avalon
DR6 -0.12 dB -6.81 dB 2:46 14-The King's Tournament
DR7 -0.12 dB -7.91 dB 2:57 15-One More!
DR7 -0.12 dB -9.02 dB 4:03 16-Don't Stop Believin'
––––––––––––––––––––––––––––––––––––––––

Number of tracks: 16
Official DR value: DR6

Samplerate: 44100 Hz
Channels: 2
Bits per sample: 16
Bitrate: 1046 kbps
Codec: FLAC
================================================================================

[CUETools log; Date: 27.11.2016 21:46:54; Version: 2.1.5]
[CTDB TOCID: 2tiQgH.F7Zu33ceg.FkCJXzm.5s-] found.
Track | CTDB Status
1 | (13/13) Accurately ripped
2 | (13/13) Accurately ripped
3 | (13/13) Accurately ripped
4 | (13/13) Accurately ripped
5 | (13/13) Accurately ripped
6 | (13/13) Accurately ripped
7 | (13/13) Accurately ripped
8 | (13/13) Accurately ripped
9 | (13/13) Accurately ripped
10 | (13/13) Accurately ripped
11 | (13/13) Accurately ripped
12 | (13/13) Accurately ripped
13 | (13/13) Accurately ripped
14 | (13/13) Accurately ripped
15 | (13/13) Accurately ripped
16 | (13/13) Accurately ripped
[AccurateRip ID: 001de8de-016f9183-e50c8610] found.
Track [ CRC | V2 ] Status
01 [2f514158|12a2a85d] (0+7/7) Accurately ripped
02 [64032671|31e5c269] (0+7/7) Accurately ripped
03 [5e1708b5|8b70e859] (0+7/7) Accurately ripped
04 [a45e981c|4300193f] (0+7/7) Accurately ripped
05 [cf28cdd8|c405ee79] (0+7/7) Accurately ripped
06 [134f07fc|18e5eb82] (0+7/7) Accurately ripped
07 [d6f93bd8|3d7e7265] (0+7/7) Accurately ripped
08 [ab2118b6|5ef771a1] (0+7/7) Accurately ripped
09 [d1654e63|da9e9859] (0+7/7) Accurately ripped
10 [30fbe8f3|134841d9] (0+7/7) Accurately ripped
11 [0d86ef3d|74c07863] (0+7/7) Accurately ripped
12 [8ee58248|9fb8f1f9] (0+7/7) Accurately ripped
13 [158d422a|8f2e48fb] (0+7/7) Accurately ripped
14 [a62701b6|3bd94b5c] (0+7/7) Accurately ripped
15 [3ba64952|ab17bf06] (0+7/7) Accurately ripped
16 [2401931b|bdfdce7a] (0+7/7) Accurately ripped

Track Peak [ CRC32 ] [W/O NULL] [ LOG ]
– 98,6 [FC4F9449] [0DC5D125] CRC32
01 92,6 [E91B7787] [E6AE9AD4]
02 98,6 [C81E3EAD] [4FBA3EE5]
03 98,6 [F52FF595] [C7BA1223]
04 98,6 [5EE5CC1E] [D6490A1D]
05 98,6 [DDF78293] [81FE2F10]
06 98,6 [5E2FD319] [4EEB6D12]
07 98,6 [4ACA6F3A] [22DD30BA]
08 98,6 [F31203D6] [0508DA26]
09 93,9 [61E065BF] [616A58F7]
10 98,6 [11FB2A00] [302E591F]
11 98,6 [E1B95CF3] [04488729]
12 98,6 [EA890E84] [52EB0807]
13 98,6 [9FEE981C] [38134005]
14 98,6 [23F72D7D] [74AE5778]
15 98,6 [A493A243] [B40AE860]
16 98,6 [1E2567A0] [23D4863F]

Celtica Pipes Rock! - Legends And Visions (2014)

See also:
Celtica Pipes Rock! - Rising (2010)
Celtica Pipes Rock! - Oceans Of Fire (2012)
Celtica Pipes Rock! - Steamphonia (2016)

All thanks go to HaRD

> Visit my blog <

Download: