Subcategories

Chaise Lounge - Second Hand Smoke (2009)

Posted By: popsakov
Chaise Lounge - Second Hand Smoke (2009)

Chaise Lounge - Second Hand Smoke (2009)
EAC Rip | FLAC (Img) + Cue + Log ~ 393 Mb | MP3 CBR320 ~ 161 Mb
Scans Included (JPG, 600 dpi) | RAR 5% Recovery
Vocal Jazz, Swing, Lounge | Big Kahuna Records #700261267708

At first, it sounds like the jazz soundtrack to either your favorite noir film or a Doris Day film from 1962. Then you realize that it isn't quite jazz at all but the orchestrated sound of six accomplished jazz musicians playing an eclectic mix of original songs and re-arranged iconic pop tunes that go back to the '50's that all sound unmistakably Chaise Lounge. On stage, the band looks as polished as it sounds. And the show, with Charlie Barnett and Marilyn Older's between song banter and the hysterical interplay between trombonist John Jensen and reedman, Gary Gregg is old-school , laugh out-loud entertainment . The grooves are soul deep. The lyrics are a mélange of highly crafted stories that cast a cinematic spell, running from heartbreakingly blue to flat-out funny. Singer, Marilyn Older, delivers these songs, with an easy and sophisticated grace. The blend of upright bass, an old Gretsch drum kit, a fat Gibson electric guitar, trombone and sax make up a sound that rocks and swings and grooves like that stack of Frank Sinatra, Stan Getz and Norah Jones 45's that is spinning in your head.

***************

Chaise Lounge - Second Hand Smoke (2009)

Track List:

01. I Don't Want To [2:40]
02. Second Hand Smoke [3:29]
03. Like Young [3:54]
04. Pretty Face on a Mission [3:10]
05. I Got the Girl [3:29]
06. Blackbird [3:22]
07. A Little More [4:40]
08. Upon Changing the Strings on My Guitar [4:58]
09. I'm Going to Kiss that Boy [2:34]
10. Everybody Feels the Heat [4:28]
11. The Trail of His Kisses [4:20]
12. Blue (the Distracted Reader) [4:55]
13. Dude, She's Waiting [3:23]
14. Big Deal on M Street [3:34]
15. No One is Better Than You [3:17]

Exact Audio Copy V1.0 beta 3 from 29. August 2011

Отчёт EAC об извлечении, выполненном 30. октября 2013, 20:00

Chaise Lounge / Second Hand Smoke

Дисковод: PLEXTOR DVDR PX-880SA Adapter: 1 ID: 0

Режим чтения : Достоверность
Использование точного потока : Да
Отключение кэша аудио : Да
Использование указателей C2 : Нет

Коррекция смещения при чтении : 6
Способность читать области Lead-in и Lead-out : Нет
Заполнение пропущенных сэмплов тишиной : Да
Удаление блоков с тишиной в начале и конце : Нет
При вычислениях CRC использовались нулевые сэмплы : Да
Интерфейс : Установленный внешний ASPI-интерфейс

Выходной формат : Пользовательский кодировщик
Выбранный битрейт : 1024 kBit/s
Качество : Высокий
Добавление ID3-тега : Нет
Утилита сжатия : C:\Program Files\Exact Audio Copy\FLAC\FLAC.EXE
Дополнительные параметры : -10 -V -T "ARTIST=%artist%" -T "TITLE=%title%" -T "ALBUM=%albumtitle%" -T "DATE=%year%" -T "TRACKNUMBER=%tracknr%" -T "GENRE=%genre%" -T "COMMENT=%comment%" -T "BAND=%albuminterpret%" -T "ALBUMARTIST=%albuminterpret%" -T "COMPOSER=%composer%" %haslyrics%–tag-from-file=LYRICS="%lyricsfile%"%haslyrics% -T "DISCNUMBER=%cdnumber%" -T "TOTALDISCS=%totalcds%" -T "TOTALTRACKS=%numtracks%" %hascover%–picture="%coverfile%"%hascover% %source% -o %dest%


TOC извлечённого CD

Трек | Старт | Длительность | Начальный сектор | Конечный сектор
––––––––––––––––––––––––––––––––––-
1 | 0:00.00 | 2:40.00 | 0 | 11999
2 | 2:40.00 | 3:29.09 | 12000 | 27683
3 | 6:09.09 | 3:53.66 | 27684 | 45224
4 | 10:03.00 | 3:10.22 | 45225 | 59496
5 | 13:13.22 | 3:29.00 | 59497 | 75171
6 | 16:42.22 | 3:21.51 | 75172 | 90297
7 | 20:03.73 | 4:39.62 | 90298 | 111284
8 | 24:43.60 | 4:58.36 | 111285 | 133670
9 | 29:42.21 | 2:33.61 | 133671 | 145206
10 | 32:16.07 | 4:27.48 | 145207 | 165279
11 | 36:43.55 | 4:20.31 | 165280 | 184810
12 | 41:04.11 | 4:54.66 | 184811 | 206926
13 | 45:59.02 | 3:23.00 | 206927 | 222151
14 | 49:22.02 | 3:34.13 | 222152 | 238214
15 | 52:56.15 | 3:17.30 | 238215 | 253019


Характеристики диапазона извлечения и сообщения об ошибках

Выбранный диапазон

Имя файла D:\BitComet\Chaise Lounge(flac)\2009 - Second Hand Smoke\Chaise Lounge - Second Hand Smoke.wav

Пиковый уровень 100.0 %
Скорость извлечения 9.3 X
Качество диапазона 100.0 %
CRC теста D9D04AB2
CRC копии D9D04AB2
Копирование… OK

Ошибок не произошло


AccurateRip: сводка

Трек 1 : извлечено точно (доверие 1) [9B8C9559] (AR v2)
Трек 2 : извлечено точно (доверие 1) [9FFDD0A2] (AR v2)
Трек 3 : извлечено точно (доверие 1) [EB0FEFC4] (AR v2)
Трек 4 : извлечено точно (доверие 1) [E120F264] (AR v2)
Трек 5 : извлечено точно (доверие 1) [5F3BE54F] (AR v2)
Трек 6 : извлечено точно (доверие 1) [9C799D9B] (AR v2)
Трек 7 : извлечено точно (доверие 1) [64C35BAC] (AR v2)
Трек 8 : извлечено точно (доверие 1) [D33A9CCE] (AR v2)
Трек 9 : извлечено точно (доверие 1) [97FC2419] (AR v2)
Трек 10 : извлечено точно (доверие 1) [8EB2D4E8] (AR v2)
Трек 11 : извлечено точно (доверие 1) [44195125] (AR v2)
Трек 12 : извлечено точно (доверие 1) [C250FE0F] (AR v2)
Трек 13 : извлечено точно (доверие 1) [3218E81D] (AR v2)
Трек 14 : извлечено точно (доверие 1) [8F11C409] (AR v2)
Трек 15 : извлечено точно (доверие 1) [6470F611] (AR v2)

Все треки извлечены точно

Конец отчёта

==== Контрольная сумма отчёта B860B904F317F2065C063CDD043AC1915B6528899EDBC1B87A61B0DA6BDD1269 ====

foobar2000 1.2.6 / Dynamic Range Meter 1.1.1
log date: 2017-03-29 08:49:19

––––––––––––––––––––––––––––––––––––––––
Analyzed: Chaise Lounge / Second Hand Smoke
––––––––––––––––––––––––––––––––––––––––

DR Peak RMS Duration Track
––––––––––––––––––––––––––––––––––––––––
DR10 -0.28 dB -11.83 dB 2:40 01-I Don't Want To
DR9 -0.30 dB -11.88 dB 3:29 02-Second Hand Smoke
DR11 -0.34 dB -13.30 dB 3:54 03-Like Young
DR9 -0.26 dB -11.52 dB 3:10 04-Pretty Face on a Mission
DR10 -0.19 dB -11.84 dB 3:29 05-I Got the Girl
DR11 -0.38 dB -16.49 dB 3:22 06-Blackbird
DR9 -0.19 dB -11.74 dB 4:40 07-A Little More
DR8 -0.14 dB -12.64 dB 4:58 08-Upon Changing the Strings on My Guitar
DR9 -0.13 dB -10.85 dB 2:34 09-I'm Going to Kiss that Boy
DR8 -0.25 dB -10.69 dB 4:28 10-Everybody Feels the Heat
DR8 -0.18 dB -10.47 dB 4:20 11-The Trail of His Kisses
DR10 -0.37 dB -14.15 dB 4:55 12-Blue (the Distracted Reader)
DR10 -0.17 dB -11.79 dB 3:23 13-Dude, She's Waiting
DR10 0.00 dB -11.95 dB 3:34 14-Big Deal on M Street
DR10 -0.33 dB -12.44 dB 3:17 15-No One is Better Than You
––––––––––––––––––––––––––––––––––––––––

Number of tracks: 15
Official DR value: DR10

Samplerate: 44100 Hz
Channels: 2
Bits per sample: 16
Bitrate: 871 kbps
Codec: FLAC
================================================================================

[CUETools log; Date: 29.03.2017 8:48:51; Version: 2.1.5]
[CTDB TOCID: WjQWjqs2dUdEwwqUKdi7zv7X0Qk-] found.
Track | CTDB Status
1 | (1/1) Accurately ripped
2 | (1/1) Accurately ripped
3 | (1/1) Accurately ripped
4 | (1/1) Accurately ripped
5 | (1/1) Accurately ripped
6 | (1/1) Accurately ripped
7 | (1/1) Accurately ripped
8 | (1/1) Accurately ripped
9 | (1/1) Accurately ripped
10 | (1/1) Accurately ripped
11 | (1/1) Accurately ripped
12 | (1/1) Accurately ripped
13 | (1/1) Accurately ripped
14 | (1/1) Accurately ripped
15 | (1/1) Accurately ripped
[AccurateRip ID: 001e110c-0159f079-d10d2d0f] found.
Track [ CRC | V2 ] Status
01 [5d043c0e|9b8c9559] (0+2/2) Accurately ripped
02 [0f724007|9ffdd0a2] (0+2/2) Accurately ripped
03 [34a918ac|eb0fefc4] (0+2/2) Accurately ripped
04 [a1fa5121|e120f264] (0+2/2) Accurately ripped
05 [89909906|5f3be54f] (0+2/2) Accurately ripped
06 [cbf5263c|9c799d9b] (0+2/2) Accurately ripped
07 [1f7de720|64c35bac] (0+2/2) Accurately ripped
08 [6622c0d8|d33a9cce] (0+2/2) Accurately ripped
09 [a5ffdd2c|97fc2419] (0+2/2) Accurately ripped
10 [582db6b4|8eb2d4e8] (0+2/2) Accurately ripped
11 [bd743022|44195125] (0+2/2) Accurately ripped
12 [e5a81972|c250fe0f] (0+2/2) Accurately ripped
13 [850ec821|3218e81d] (0+2/2) Accurately ripped
14 [c1854f39|8f11c409] (0+2/2) Accurately ripped
15 [79c64da0|6470f611] (0+2/2) Accurately ripped

Track Peak [ CRC32 ] [W/O NULL] [ LOG ]
– 100,0 [D9D04AB2] [B8BE3765] CRC32
01 96,8 [A06F572D] [803CE0F3]
02 96,5 [BD951F01] [F7458E63]
03 96,2 [B081EC06] [3E343219]
04 97,0 [D3C9EA9C] [941AC151]
05 97,8 [1EAF7B93] [BBBD72C5]
06 95,7 [2145ABAD] [8583C4E1]
07 97,8 [EEDFC513] [A5859E7E]
08 98,3 [F2542C66] [B2230C65]
09 98,5 [C42E8E41] [82FB5056]
10 97,1 [B4FECF41] [9B6BA0CC]
11 97,9 [A5A90B6F] [7E944110]
12 95,8 [BA3DF129] [A044448E]
13 98,0 [08854CFF] [FA4F3506]
14 100,0 [FA1B58A5] [EC66B2CC]
15 96,2 [AFF39F4D] [9D60E589]

Chaise Lounge - Second Hand Smoke (2009)

Chaise Lounge - Second Hand Smoke (2009)

All thanks go to izia1956

> Chaise Lounge in my blog <