Subcategories

Charles Aznavour - Duos (2008) Repost/New Rip

Posted By: popsakov
Charles Aznavour - Duos (2008) Repost/New Rip

Charles Aznavour - Duos (2008)
EAC Rip | FLAC (Img) + Cue + Log ~ Mb | MP3 CBR320 ~ 238 Mb
Scans (JPG, 600 dpi) ~ 56 Mb | RAR 5% Recovery
Pop, Chanson | EMI #50999 2436822 3

Charles Aznavour's double-disc Duos album boasts a lot of starpower and a bunch of his greatest hits, but there's less than initially meets the eye here. Sure, a quick glance at the track listing shows a long list of international superstars who team up with Aznavour to sing duets on the album, including Céline Dion, Julio Iglesias, Placido Domingo, Laura Pausini, Elton John, Johnny Hallyday, Nana Mouskouri, Sting, Josh Groban, Carole King, Paul Anka, Herbert Gronemeyer, Liza Minnelli, and Bryan Ferry. Even the late Edith Piaf, Frank Sinatra, and Dean Martin show up for duets. Moreover, the track listing reads like a greatest-hits collection, compiling the classics "Toi et Moi," "Hier Encore," and "La Bohème," among many others. Yet a more careful study of the track listing reveals that the featured superstars show up not once but twice – once on each disc, in general – and that the songs are likewise duplicated – once on the French-language first disc and then, with some exceptions, again on the English-language second disc. Essentially, Aznavour and the guest vocalists cut a French- and English-language version of each song, one for each disc. So there's less than meets the eye here on Duos, as the second disc mostly repeats the first disc, albeit in a secondary language (English in most cases, but also Spanish, Italian, and German in the case of the respective Domingo, Pausini, and Gronemeyer duets).
~ Jason Birchmeier, All Music

***************

Charles Aznavour - Duos (2008) Repost/New Rip

Track List CD1:

01. Toi Et Moi (Feat. Celine Dion) [0:03:38.19]
02. Que C'est Triste Venise (Feat. Julio Iglesias) [0:03:15.37]
03. Les Bateaux Sont Partis (Feat. Placido Domingo) [0:02:27.56]
04. Paris Au Mois S'aout (Feat. Laura Pausini) [0:03:40.59]
05. Hier Encore (Feat. Elton John) [0:03:28.33]
06. Il Faut Savoir (Feat. Johnny Hallyday) [0:03:33.19]
07. Mourir D'aimer (Feat. Nana Mouskouri) [0:04:02.71]
08. L'amour C'est Comme Un Jour (Feat. Sting) [0:04:09.62]
09. La Boheme (Feat. Josh Groban) [0:04:21.21]
10. Ton Nom (Feat. Carole King) [0:02:53.56]
11. Je N'ai Pas Vu Le Temps Passer (Feat. Paul Anka) [0:03:53.49]
12. Mes Emmerdes (Feat. Herbert Gronemeyer) [0:03:08.39]
13. C'est Un Gars (Feat. Edith Piaf) [0:04:10.03]

Exact Audio Copy V1.1 from 23. June 2015

EAC extraction logfile from 3. April 2016, 15:54

Charles Aznavour / Duos (CD1)

Used drive : ATAPI iHAS124 D Adapter: 0 ID: 2

Read mode : Secure
Utilize accurate stream : Yes
Defeat audio cache : Yes
Make use of C2 pointers : No

Read offset correction : 6
Overread into Lead-In and Lead-Out : No
Fill up missing offset samples with silence : Yes
Delete leading and trailing silent blocks : No
Null samples used in CRC calculations : Yes
Used interface : Installed external ASPI interface

Used output format : User Defined Encoder
Selected bitrate : 1024 kBit/s
Quality : High
Add ID3 tag : Yes
Command line compressor : C:\Program Files (x86)\Exact Audio Copy\Flac\flac.exe
Additional command line options : -6 -V -T "ARTIST=%artist%" -T "TITLE=%title%" -T "ALBUM=%albumtitle%" -T "DATE=%year%" -T "TRACKNUMBER=%tracknr%" -T "GENRE=%genre%" -T "COMMENT=%comment%" -T "BAND=%albuminterpret%" -T "COMPOSER=%composer%" %haslyrics%–tag-from-file=LYRICS="%lyricsfile%"%haslyrics% -T "DISCNUMBER=%cdnumber%" -T "TOTALDISCS=%totalcds%" -T "TOTALTRACKS=%numtracks%" %hascover%–picture="%coverfile%"%hascover% %source% -o %dest%


TOC of the extracted CD

Track | Start | Length | Start sector | End sector
––––––––––––––––––––––––––––-
1 | 0:00.00 | 3:38.19 | 0 | 16368
2 | 3:38.19 | 3:15.37 | 16369 | 31030
3 | 6:53.56 | 2:27.56 | 31031 | 42111
4 | 9:21.37 | 3:40.59 | 42112 | 58670
5 | 13:02.21 | 3:28.33 | 58671 | 74303
6 | 16:30.54 | 3:33.19 | 74304 | 90297
7 | 20:03.73 | 4:02.71 | 90298 | 108518
8 | 24:06.69 | 4:09.62 | 108519 | 127255
9 | 28:16.56 | 4:21.21 | 127256 | 146851
10 | 32:38.02 | 2:53.56 | 146852 | 159882
11 | 35:31.58 | 3:53.49 | 159883 | 177406
12 | 39:25.32 | 3:08.39 | 177407 | 191545
13 | 42:33.71 | 4:10.03 | 191546 | 210298


Range status and errors

Selected range

Filename C:\mm\Charles Aznavour\2008 - Duos [50999 2436822 3]\Charles Aznavour - Duos (CD1).wav

Peak level 100.0 %
Extraction speed 8.3 X
Range quality 100.0 %
Test CRC D37D8C64
Copy CRC D37D8C64
Copy OK

No errors occurred


AccurateRip summary

Track 1 accurately ripped (confidence 35) [A26B5433] (AR v2)
Track 2 accurately ripped (confidence 34) [14522956] (AR v2)
Track 3 accurately ripped (confidence 36) [5E721611] (AR v2)
Track 4 accurately ripped (confidence 36) [4DB0CC4A] (AR v2)
Track 5 accurately ripped (confidence 34) [2DF57064] (AR v2)
Track 6 accurately ripped (confidence 34) [1024B4F7] (AR v2)
Track 7 accurately ripped (confidence 36) [FCE201A3] (AR v2)
Track 8 accurately ripped (confidence 35) [142FC0B1] (AR v2)
Track 9 accurately ripped (confidence 35) [D73814A7] (AR v2)
Track 10 accurately ripped (confidence 35) [9D8EF57C] (AR v2)
Track 11 accurately ripped (confidence 35) [50239788] (AR v2)
Track 12 accurately ripped (confidence 34) [4EB776C3] (AR v2)
Track 13 accurately ripped (confidence 34) [48B14649] (AR v2)

All tracks accurately ripped

End of status report

foobar2000 1.2.6 / Dynamic Range Meter 1.1.1
log date: 2016-04-23 21:36:25

––––––––––––––––––––––––––––––––––––––––
Analyzed: Charles Aznavour / Duos (CD1)
––––––––––––––––––––––––––––––––––––––––

DR Peak RMS Duration Track
––––––––––––––––––––––––––––––––––––––––
DR5 0.00 dB -6.68 dB 3:38 01-Toi Et Moi (Feat. Celine Dion)
DR5 0.00 dB -6.96 dB 3:15 02-Que C'est Triste Venise (Feat. Julio Iglesias)
DR5 -1.00 dB -7.62 dB 2:28 03-Les Bateaux Sont Partis (Feat. Placido Domingo)
DR5 0.00 dB -8.41 dB 3:41 04-Paris Au Mois S'aout (Feat. Laura Pausini)
DR6 0.00 dB -8.93 dB 3:28 05-Hier Encore (Feat. Elton John)
DR5 0.00 dB -6.65 dB 3:33 06-Il Faut Savoir (Feat. Johnny Hallyday)
DR5 0.00 dB -6.69 dB 4:03 07-Mourir D'aimer (Feat. Nana Mouskouri)
DR7 0.00 dB -9.64 dB 4:10 08-L'amour C'est Comme Un Jour (Feat. Sting)
DR6 0.00 dB -7.94 dB 4:21 09-La Boheme (Feat. Josh Groban)
DR5 0.00 dB -7.17 dB 2:54 10-Ton Nom (Feat. Carole King)
DR6 0.00 dB -8.48 dB 3:54 11-Je N'ai Pas Vu Le Temps Passer (Feat. Paul Anka)
DR5 0.00 dB -6.54 dB 3:09 12-Mes Emmerdes (Feat. Herbert Gronemeyer)
DR8 0.00 dB -9.24 dB 4:10 13-C'est Un Gars (Feat. Edith Piaf)
––––––––––––––––––––––––––––––––––––––––

Number of tracks: 13
Official DR value: DR6

Samplerate: 44100 Hz
Channels: 2
Bits per sample: 16
Bitrate: 910 kbps
Codec: FLAC
================================================================================

[CUETools log; Date: 23.04.2016 21:36:23; Version: 2.1.5]
[CTDB TOCID: gTWFMUdVCNyp1ojRPJgr26PDRqg-] found.
Track | CTDB Status
1 | (63/64) Accurately ripped
2 | (63/64) Accurately ripped
3 | (63/64) Accurately ripped
4 | (63/64) Accurately ripped
5 | (63/64) Accurately ripped
6 | (62/64) Accurately ripped
7 | (63/64) Accurately ripped
8 | (63/64) Accurately ripped
9 | (63/64) Accurately ripped
10 | (63/64) Accurately ripped
11 | (62/64) Accurately ripped
12 | (62/64) Accurately ripped
13 | (62/64) Accurately ripped
[AccurateRip ID: 0015e3b3-00dcc91a-b20af30d] found.
Track [ CRC | V2 ] Status
01 [a37ba50d|a26b5433] (22+35/57) Accurately ripped
02 [a2e5fbf9|14522956] (22+34/56) Accurately ripped
03 [239aadca|5e721611] (23+36/59) Accurately ripped
04 [89a19f03|4db0cc4a] (22+36/58) Accurately ripped
05 [dc3c1964|2df57064] (23+34/57) Accurately ripped
06 [116ee43b|1024b4f7] (23+34/57) Accurately ripped
07 [3453c358|fce201a3] (23+36/59) Accurately ripped
08 [b01fb3e6|142fc0b1] (23+35/58) Accurately ripped
09 [315eb858|d73814a7] (23+35/58) Accurately ripped
10 [7930404e|9d8ef57c] (23+35/58) Accurately ripped
11 [32182a5b|50239788] (23+35/58) Accurately ripped
12 [df7af232|4eb776c3] (22+34/56) Accurately ripped
13 [c453a4e7|48b14649] (23+34/57) Accurately ripped
Offsetted by -664:
01 [80b38515] (00/57) No match (V2 was not tested)
02 [120f5a89] (00/56) No match (V2 was not tested)
03 [4381d52a] (00/59) No match (V2 was not tested)
04 [e14f6ceb] (00/58) No match (V2 was not tested)
05 [c2fc0324] (00/57) No match (V2 was not tested)
06 [207303f3] (00/57) No match (V2 was not tested)
07 [b8e778a8] (00/59) No match (V2 was not tested)
08 [ca5dc2a6] (00/58) No match (V2 was not tested)
09 [9c99d468] (00/58) No match (V2 was not tested)
10 [1a728596] (00/58) No match (V2 was not tested)
11 [7dc7adc3] (00/58) No match (V2 was not tested)
12 [8c2c657a] (00/56) No match (V2 was not tested)
13 [7d66fe07] (00/57) No match (V2 was not tested)

Track Peak [ CRC32 ] [W/O NULL] [ LOG ]
– 100,0 [D37D8C64] [55FB7736] CRC32
01 100,0 [41B18B4B] [BFED9C24]
02 100,0 [1EB910B8] [D1F1F24C]
03 89,1 [4B147182] [A9D87862]
04 100,0 [14450BF5] [8D19FC4C]
05 100,0 [5EFF19F8] [4310C4B4]
06 100,0 [B9F948AC] [D85288B6]
07 100,0 [F0E65189] [82C56D1A]
08 100,0 [7C0A6882] [9659E951]
09 100,0 [5A071787] [CD09ADA2]
10 100,0 [F4AFF7A3] [F21A3651]
11 100,0 [65C43E02] [E91643F0]
12 100,0 [67A4093B] [485ACE1E]
13 100,0 [04CBD415] [39B2247A]

Charles Aznavour - Duos (2008) Repost/New Rip

Track List CD2:

01. Yesterday When I Was Young (With Elton John) [0:03:28.27]
02. Quiet Love (With Liza Minnelli) [0:05:27.34]
03. Love Is New Everyday (With Sting) [0:04:09.45]
04. Young At Heart (With Frank Sinatra) [0:02:55.24]
05. To Die Of Love (With Nana Mouskouri) [0:04:03.18]
06. She (With Bryan Ferry) [0:02:29.53]
07. I Didn't See The Time Go By (With Paul Anka) [0:03:53.59]
08. You And Me (With Celine Dion) [0:03:37.53]
09. La Boheme [English Version] (With Josh Groban) [0:03:30.43]
10. El Barco Ya Se Fue (With Placido Domingo) [0:02:28.05]
11. The Sound Of Your Name (With Carole King) [0:02:53.42]
12. You've Got To Learn (With Johnny Hallyday) [0:03:33.08]
13. Parigi In Agosto (With Laura Pausini) [0:03:40.46]
14. Als Es Mir Beschissen Ging (With Herbert Gronemeyer) [0:02:39.61]
15. Everybody Loves Somebody (With Dean Martin) [0:03:13.56]

Exact Audio Copy V1.1 from 23. June 2015

EAC extraction logfile from 3. April 2016, 16:32

Charles Aznavour / Duos (CD2)

Used drive : ATAPI iHAS124 D Adapter: 0 ID: 2

Read mode : Secure
Utilize accurate stream : Yes
Defeat audio cache : Yes
Make use of C2 pointers : No

Read offset correction : 6
Overread into Lead-In and Lead-Out : No
Fill up missing offset samples with silence : Yes
Delete leading and trailing silent blocks : No
Null samples used in CRC calculations : Yes
Used interface : Installed external ASPI interface

Used output format : User Defined Encoder
Selected bitrate : 1024 kBit/s
Quality : High
Add ID3 tag : Yes
Command line compressor : C:\Program Files (x86)\Exact Audio Copy\Flac\flac.exe
Additional command line options : -6 -V -T "ARTIST=%artist%" -T "TITLE=%title%" -T "ALBUM=%albumtitle%" -T "DATE=%year%" -T "TRACKNUMBER=%tracknr%" -T "GENRE=%genre%" -T "COMMENT=%comment%" -T "BAND=%albuminterpret%" -T "COMPOSER=%composer%" %haslyrics%–tag-from-file=LYRICS="%lyricsfile%"%haslyrics% -T "DISCNUMBER=%cdnumber%" -T "TOTALDISCS=%totalcds%" -T "TOTALTRACKS=%numtracks%" %hascover%–picture="%coverfile%"%hascover% %source% -o %dest%


TOC of the extracted CD

Track | Start | Length | Start sector | End sector
––––––––––––––––––––––––––––-
1 | 0:00.00 | 3:28.27 | 0 | 15626
2 | 3:28.27 | 5:27.34 | 15627 | 40185
3 | 8:55.61 | 4:09.45 | 40186 | 58905
4 | 13:05.31 | 2:55.24 | 58906 | 72054
5 | 16:00.55 | 4:03.18 | 72055 | 90297
6 | 20:03.73 | 2:29.53 | 90298 | 101525
7 | 22:33.51 | 3:53.59 | 101526 | 119059
8 | 26:27.35 | 3:37.53 | 119060 | 135387
9 | 30:05.13 | 3:30.43 | 135388 | 151180
10 | 33:35.56 | 2:28.05 | 151181 | 162285
11 | 36:03.61 | 2:53.42 | 162286 | 175302
12 | 38:57.28 | 3:33.08 | 175303 | 191285
13 | 42:30.36 | 3:40.46 | 191286 | 207831
14 | 46:11.07 | 2:39.61 | 207832 | 219817
15 | 48:50.68 | 3:13.56 | 219818 | 234348


Range status and errors

Selected range

Filename C:\mm\Charles Aznavour\2008 - Duos [50999 2436822 3]\Charles Aznavour - Duos (CD2).wav

Peak level 100.0 %
Extraction speed 7.7 X
Range quality 99.9 %
Test CRC 7D99D65B
Copy CRC 7D99D65B
Copy OK

No errors occurred


AccurateRip summary

Track 1 accurately ripped (confidence 33) [BFEF32FB] (AR v2)
Track 2 accurately ripped (confidence 34) [615D3CD3] (AR v2)
Track 3 accurately ripped (confidence 34) [2E4C543B] (AR v2)
Track 4 accurately ripped (confidence 33) [4E3B4A10] (AR v2)
Track 5 accurately ripped (confidence 33) [E11CE6EB] (AR v2)
Track 6 accurately ripped (confidence 35) [A8C60A24] (AR v2)
Track 7 accurately ripped (confidence 35) [6DA1D22B] (AR v2)
Track 8 accurately ripped (confidence 35) [9BF0763F] (AR v2)
Track 9 accurately ripped (confidence 35) [6F12C177] (AR v2)
Track 10 accurately ripped (confidence 33) [8B63B9F8] (AR v2)
Track 11 accurately ripped (confidence 34) [A5EE4A45] (AR v2)
Track 12 accurately ripped (confidence 35) [8B4BCD05] (AR v2)
Track 13 accurately ripped (confidence 35) [12510EB9] (AR v2)
Track 14 accurately ripped (confidence 34) [902F8116] (AR v2)
Track 15 accurately ripped (confidence 33) [9EBED833] (AR v2)

All tracks accurately ripped

End of status report

foobar2000 1.2.6 / Dynamic Range Meter 1.1.1
log date: 2016-04-23 21:38:44

––––––––––––––––––––––––––––––––––––––––
Analyzed: Charles Aznavour / Duos (CD2)
––––––––––––––––––––––––––––––––––––––––

DR Peak RMS Duration Track
––––––––––––––––––––––––––––––––––––––––
DR6 0.00 dB -8.56 dB 3:28 01-Yesterday When I Was Young (With Elton John)
DR6 -0.50 dB -8.40 dB 5:27 02-Quiet Love (With Liza Minnelli)
DR7 0.00 dB -10.22 dB 4:10 03-Love Is New Everyday (With Sting)
DR5 0.00 dB -7.44 dB 2:55 04-Young At Heart (With Frank Sinatra)
DR5 0.00 dB -6.90 dB 4:03 05-To Die Of Love (With Nana Mouskouri)
DR5 0.00 dB -6.56 dB 2:30 06-She (With Bryan Ferry)
DR6 0.00 dB -8.49 dB 3:54 07-I Didn't See The Time Go By (With Paul Anka)
DR5 0.00 dB -6.76 dB 3:38 08-You And Me (With Celine Dion)
DR6 0.00 dB -8.28 dB 3:31 09-La Boheme [English Version] (With Josh Groban)
DR5 -1.00 dB -7.95 dB 2:28 10-El Barco Ya Se Fue (With Placido Domingo)
DR5 0.00 dB -7.24 dB 2:54 11-The Sound Of Your Name (With Carole King)
DR6 0.00 dB -7.27 dB 3:33 12-You've Got To Learn (With Johnny Hallyday)
DR5 0.00 dB -8.70 dB 3:41 13-Parigi In Agosto (With Laura Pausini)
DR5 0.00 dB -6.96 dB 2:40 14-Als Es Mir Beschissen Ging (With Herbert Gronemeyer)
DR7 0.00 dB -9.26 dB 3:14 15-Everybody Loves Somebody (With Dean Martin)
––––––––––––––––––––––––––––––––––––––––

Number of tracks: 15
Official DR value: DR6

Samplerate: 44100 Hz
Channels: 2
Bits per sample: 16
Bitrate: 897 kbps
Codec: FLAC
================================================================================

[CUETools log; Date: 23.04.2016 21:38:43; Version: 2.1.5]
[CTDB TOCID: rm1p7gkPZQzbXIgTGY8uhThmLIQ-] found.
Track | CTDB Status
1 | (54/54) Accurately ripped
2 | (54/54) Accurately ripped
3 | (54/54) Accurately ripped
4 | (54/54) Accurately ripped
5 | (54/54) Accurately ripped
6 | (54/54) Accurately ripped
7 | (54/54) Accurately ripped
8 | (53/54) Accurately ripped
9 | (54/54) Accurately ripped
10 | (54/54) Accurately ripped
11 | (52/54) Accurately ripped
12 | (54/54) Accurately ripped
13 | (54/54) Accurately ripped
14 | (54/54) Accurately ripped
15 | (54/54) Accurately ripped
[AccurateRip ID: 001e233d-014febf6-d20c340f] found.
Track [ CRC | V2 ] Status
01 [932988b3|bfef32fb] (21+33/54) Accurately ripped
02 [3585e384|615d3cd3] (22+34/56) Accurately ripped
03 [bc0c3aaa|2e4c543b] (22+34/56) Accurately ripped
04 [49bcf19b|4e3b4a10] (22+33/55) Accurately ripped
05 [dd6b3873|e11ce6eb] (22+33/55) Accurately ripped
06 [4a0e4b47|a8c60a24] (22+35/57) Accurately ripped
07 [3b69d60c|6da1d22b] (22+35/57) Accurately ripped
08 [75d11d82|9bf0763f] (22+35/57) Accurately ripped
09 [38004525|6f12c177] (22+35/57) Accurately ripped
10 [1f7bd221|8b63b9f8] (22+33/55) Accurately ripped
11 [8c8283f9|a5ee4a45] (22+34/56) Accurately ripped
12 [78e4ab27|8b4bcd05] (22+35/57) Accurately ripped
13 [e7c1ec26|12510eb9] (22+35/57) Accurately ripped
14 [424e393b|902f8116] (22+34/56) Accurately ripped
15 [93010a9d|9ebed833] (22+33/55) Accurately ripped
Offsetted by -664:
01 [bd2b4d73] (00/54) No match (V2 was not tested)
02 [11f69d7c] (00/56) No match (V2 was not tested)
03 [21e4efb2] (00/56) No match (V2 was not tested)
04 [304e3d6b] (00/55) No match (V2 was not tested)
05 [60d9ac2b] (00/55) No match (V2 was not tested)
06 [f9d96367] (00/57) No match (V2 was not tested)
07 [d3451614] (00/57) No match (V2 was not tested)
08 [a553a882] (00/57) No match (V2 was not tested)
09 [d8c3c145] (00/57) No match (V2 was not tested)
10 [e4094ef1] (00/55) No match (V2 was not tested)
11 [e285fbc9] (00/56) No match (V2 was not tested)
12 [4c627f4f] (00/57) No match (V2 was not tested)
13 [9690ed7e] (00/57) No match (V2 was not tested)
14 [544e4713] (00/56) No match (V2 was not tested)
15 [343b0c55] (00/55) No match (V2 was not tested)

Track Peak [ CRC32 ] [W/O NULL] [ LOG ]
– 100,0 [7D99D65B] [E5B862AC] CRC32
01 100,0 [6436AD17] [C3E2A070]
02 94,4 [F041E756] [C43A29E9]
03 100,0 [D4306467] [BB32839E]
04 100,0 [9E6E7985] [42E2E749]
05 100,0 [38106ADB] [BDB4C4B6]
06 100,0 [E5984301] [0D61A439]
07 100,0 [BABE2B04] [068D62AA]
08 100,0 [CCED8D2B] [464819EC]
09 100,0 [7DACA684] [E358F142]
10 89,1 [0BD0BFB3] [54AB470E]
11 100,0 [3753EE2D] [2A7E07A5]
12 100,0 [1C4356FD] [44CAEBCE]
13 100,0 [F97355CB] [4A337D12]
14 100,0 [CD17CDA0] [ADB7CCD9]
15 100,0 [2C67CEEC] [0946717B]

Charles Aznavour - Duos (2008) Repost/New Rip

See also:
Charles Aznavour - Jazznavour (1998)

All thanks go to the original ripper(s) …

Visit my blog!

Download: